Сегодня идет свободное скачивание без начисления Download

Минута молчания (1971) DVD5

Ответить на тему
 
Автор
Сообщение

Omen ®

Стаж: 5 лет 10 месяцев

Сообщений: 184329

Торрент-статистика

Пост 13-Янв-2013 10:17

[Цитировать]

-Минута молчания (1971) DVD5- Русское название: Минута молчания
Год выпуска: 1971
Жанр: Военный, Драма
Описание фильма:
На широком поле строителями дороги была найдена могила солдата. Дорожники перенесли могилу и поставили на ней плиту и, казалось, выполнили свой долг. Но безымянная могила не давала покоя. И вот юному подсобному рабочему Сергею поручили выяснить имя погибшего солдата. И после долгих поисков Сергею удалось выяснить имена пяти солдат, вступивших здесь в смертельную схватку с врагом, установить историю их подвига, совершенного в дни Великой Отечественной войны.
Режиссер: Игорь Шатров
Актеры: Александр Кавалеров, Юрий Кузьменков, Иван Лапиков, Евгений Быкадоров, Владимир Иванов (II), Владимир Страхов, Юрий Катин-Ярцев, Владимир Селезнев, Галина Федотова, Лариса Ильюшина, Лидия Ольшевская, Николай Волков (младший), Елизавета Никищихина, Вадим Гусев, Алевтина Румянцева, Валентина Куценко, Александр Массарский, Алексей Миронов, Надежда Самсонова, Анатолий Ромашин, Юрий Рудский, Любовь Тарасова, Ольга Маркина, Анатолий Дегтярь
Продолжительность: 01:35:23

Видеокодек: MPEG-2
Битрейт видео: ~5907 Кбит/сек
Размер кадра: 720x576
Качество видео: DVD5
Аудиокодек: AC3 2.0
Битрейт аудио: 224 Кбит/сек
Дополнительные материалы: Смотрите на DVD

DVDInfo:

Title: Минута молчания DVD5
Size: 4.19 Gb ( 4 398 766,00 KBytes ) - DVD-5
Enabled regions: 1, 2, 3, 4, 5, 6, 7, 8
VTS_01 :
Play Length: 00:00:00
Video: PAL 4:3 (720x576) VBR
VTS_02 :
Play Length: 01:35:23
Video: PAL 16:9 (720x576) VBR, Auto Letterboxed
Audio:
Russian (Dolby AC3, 2 ch)
VTS_03 :
Play Length: 00:00:00
Video: PAL 4:3 (720x576) VBR
VTS_04 :
Play Length: 00:00:00
Video: PAL 4:3 (720x576) VBR
* Menus Information *
VIDEO_TS Menu
Video:
PAL 4:3 (720x576) VBR
English Language Unit :
Title Menu
VTS_01 Menu
Video:
PAL 4:3 (720x576) VBR
Audio:
Not specified (Dolby AC3, 2 ch)
English Language Unit :
Root Menu
VTS_02 Menu
Video:
PAL 4:3 (720x576) VBR
English Language Unit :
Root Menu
Chapter (PTT) Menu
VTS_03 Menu
Video:
PAL 4:3 (720x576) VBR
English Language Unit :
Root Menu
VTS_04 Menu
Video:
PAL 4:3 (720x576) VBR
English Language Unit :
Root Menu

DVDMenu:

     

MediaInfo:

Общее
Полное имя : H:\!V\Минута молчания\Минута молчания DVD5\VIDEO_TS\VTS_02_1.VOB
Формат : MPEG-PS
Размер файла : 1024 Мбайт
Продолжительность : 22 м.
Режим общего битрейта : Переменный
Общий поток : 6256 Кбит/сек
Видео
Идентификатор : 224 (0xE0)
Формат : MPEG Video
Версия формата : Version 2
Профиль формата : [email protected]
Параметр BVOP формата : Да
Параметр матрицы формата : Выборочная
Параметр GOP формата : Variable
Продолжительность : 22 м.
Вид битрейта : Переменный
Битрейт : 5907 Кбит/сек
Максимальный битрейт : 9000 Кбит/сек
Ширина : 720 пикселей
Высота : 576 пикселей
Соотношение сторон : 4:3
Частота кадров : 25,000 кадров/сек
Стандарт вещания : PAL
Цветовое пространство : YUV
Субдискретизация насыщенности : 4:2:0
Битовая глубина : 8 бит
Тип развёртки : Чересстрочная
Порядок развёртки : Верхнее поле первое
Метод сжатия : С потерями
Бит/(Пиксели*Кадры) : 0.570
Размер потока : 967 Мбайт (94%)
Аудио
Идентификатор : 189 (0xBD)-128 (0x80)
Формат : AC-3
Формат/Информация : Audio Coding 3
Расширение режима : CM (complete main)
Параметр Endianness формата : Big
Режим смешивания : DVD-Video
Продолжительность : 22 м.
Вид битрейта : Постоянный
Битрейт : 224 Кбит/сек
Каналы : 2 канала
Расположение каналов : Front: L R
Частота : 48,0 КГц
Битовая глубина : 16 бит
Метод сжатия : С потерями
Размер потока : 36,7 Мбайт (4%)
Меню
Скриншоты:
         
         
Время раздачи: С 09 до 23:00
Минута молчания на NNM-CLUB
Вне форума [Профиль] [ЛС]
Похожие темы
Форум Тема Автор Торрент Отв. Посл. сообщение
./templates/default/images/folder_dl.gif Обучающее видео Пресс за 8 минут. 3 уровня сложности (2011) WEBRip Omen
1 | 0

0 | 760

57

2013-02-01 18:27
Omen Последнее
./templates/default/images/folder_dl.gif Обучающее видео [Анатолий Алексеев] Глянцевая ретушь и цветокоррекция за 5 минут [2013, RUS] Omen
1 | 0

0 | 1044

20

2015-06-29 06:00
Omen Последнее
./templates/default/images/folder_dl.gif Медицина и Здоровье Андрей Левшинов | Йога за 10 минут. Упражнения, которые вернут бодрость, омолодят тело, предотвратят болезни! (2016) [FB2] moralis
1 | 0

0 | 1017

9

2016-01-19 22:37
moralis Последнее
./templates/default/images/folder_dl.gif Обучающее видео Сергей Панферов | Создание магических видео-эффектов за считанные минуты (2016) PCRec }{@R0N
1 | 0

0 | 1218

16

2016-12-10 23:37
}{@R0N Последнее
./templates/default/images/folder_dl.gif Для детей, родителей и учителей Елена Красовская | Карнавальные костюмы своими руками. От сложной идеи до костюма-пятиминутки (2017) [PDF] XP1971
1 | 0

0 | 2152

4

2017-12-01 12:42
XP1971 Последнее
Показать сообщения:    
Ответить на тему

Текущее время: Сегодня 15:04

Часовой пояс: GMT + 3



Вы не можете начинать темы
Вы не можете отвечать на сообщения
Вы не можете редактировать свои сообщения
Вы не можете удалять свои сообщения
Вы не можете голосовать в опросах
Вы не можете прикреплять файлы к сообщениям
Вы не можете скачивать файлы