Сегодня идет свободное скачивание без начисления Download

Мужской разговор (1968) DVD5

Ответить на тему
 
Автор
Сообщение

Omen ®

Стаж: 5 лет 10 месяцев

Сообщений: 184329

Торрент-статистика

Пост 13-Янв-2013 10:17

[Цитировать]

-Мужской разговор (1968) DVD5- Русское название: Мужской разговор
Год выпуска: 1968
Жанр: Драма
Описание фильма:
По мотивам повести Фролова "Что к чему".Старшекласник Саша Ларионов не знает, что мать ушла из семьи. У Николая Николаевича, его отца, не хватает мужества сказать сыну правду. Долгое отсутствие жены он объясняет длительной командировкой. Порядочный человек, привыкший говорить с людьми честно, он не знает, как лучше истолковать её поступок. Для него важно, чтобы сын постарался понять и не торопился с выводами. Узнав о случившемся случайно, Саша решил ехать к матери и, как он надеется, вернуть её.С отъездом ему помогает Юра, мальчик, недавно подружившийся с Сашей. У него тоже сложная семейная обстановка. Мама хочет выйти вторично замуж, но Юра боится, что новый муж окажется не лучше прежнего и всячески саботирует её жениха.Деньги на поездку для друга он пытался достать через знакомого, который предложил торговать с рук на базаре лавровым листом, но узнав, что это фальшивка, ребята отказываются от его услуг. Выручил Сашу товарищ отца — портовый боцман, одолживший необходимую для поездки сумму.
Режиссер: Игорь Шатров
Актеры: Николай Яхонтов, Александр Кавалеров, Василий Шукшин, Леонид Куравлев, Нинель Мышкова, Алевтина Румянцева, Софья Павлова, Оксана Левинсон, Владимир Этуш, Павел Боголюбов, Ольга Щепкина, Светлана Артюхова, Сергей Гурзо-мл., Алексей Глазырин, Наталия Богунова
Продолжительность: 01:27:34

Видеокодек: MPEG-2
Битрейт видео: ~5596 Кбит/сек
Размер кадра: 720x576
Качество видео: DVD5
Аудиокодек: AC3 2.0
Битрейт аудио: 192 Кбит/сек
Награды: Приз Венецианского детского кинофестиваля
Дополнительные материалы: Смотрите на DVD

MediaInfo:

Общее
Полное имя : H:\!V\!Подгот\Мужской разговор\мужской разговор DVD5\VIDEO_TS\VTS_09_1.VOB
Формат : MPEG-PS
Размер файла : 1024 Мбайт
Продолжительность : 24 м.
Режим общего битрейта : Переменный
Общий поток : 5906 Кбит/сек
Видео
Идентификатор : 224 (0xE0)
Формат : MPEG Video
Версия формата : Version 2
Профиль формата : [email protected]
Параметр BVOP формата : Да
Параметр матрицы формата : По умолчанию
Параметр GOP формата : M=3, N=12
Продолжительность : 24 м.
Вид битрейта : Переменный
Битрейт : 5596 Кбит/сек
Максимальный битрейт : 6800 Кбит/сек
Ширина : 720 пикселей
Высота : 576 пикселей
Соотношение сторон : 4:3
Частота кадров : 25,000 кадров/сек
Стандарт вещания : PAL
Цветовое пространство : YUV
Субдискретизация насыщенности : 4:2:0
Битовая глубина : 8 бит
Тип развёртки : Чересстрочная
Порядок развёртки : Верхнее поле первое
Метод сжатия : С потерями
Бит/(Пиксели*Кадры) : 0.540
Размер потока : 970 Мбайт (95%)
Основные цвета : BT.601 PAL
Характеристики трансфера : BT.470 System B, BT.470 System G
Коэффициенты матрицы : BT.601
Аудио
Идентификатор : 189 (0xBD)-128 (0x80)
Формат : AC-3
Формат/Информация : Audio Coding 3
Расширение режима : CM (complete main)
Параметр Endianness формата : Big
Режим смешивания : DVD-Video
Продолжительность : 24 м.
Вид битрейта : Постоянный
Битрейт : 192 Кбит/сек
Каналы : 2 канала
Расположение каналов : Front: L R
Частота : 48,0 КГц
Битовая глубина : 16 бит
Метод сжатия : С потерями
Размер потока : 33,3 Мбайт (3%)
Меню

DVDInfo:

Title: мужской разговор DVD5
Size: 3.85 Gb ( 4 040 040,00 KBytes ) - DVD-5
Enabled regions: 1, 2, 3, 4, 5, 6, 7, 8
VTS_01 :
Play Length: 00:00:00
Video: PAL 4:3 (720x576) VBR
VTS_02 :
Play Length: 00:00:00
Video: PAL 4:3 (720x576) VBR
VTS_03 :
Play Length: 00:00:00
Video: PAL 4:3 (720x576) VBR
VTS_04 :
Play Length: 00:00:00
Video: PAL 4:3 (720x576) VBR
VTS_05 :
Play Length: 00:00:00
Video: PAL 4:3 (720x576) VBR
VTS_06 :
Play Length: 00:00:00
Video: PAL 4:3 (720x576) VBR
VTS_07 :
Play Length: 00:00:00
Video: PAL 4:3 (720x576) VBR
VTS_08 :
Play Length: 00:00:00
Video: PAL 4:3 (720x576) VBR
VTS_09 :
Play Length: 01:27:34
Video: PAL 4:3 (720x576) VBR
Audio:
Russian (Dolby AC3, 2 ch)
* Menus Information *
VIDEO_TS Menu
Video:
PAL 4:3 (720x576) VBR
English Language Unit :
Title Menu
VTS_01 Menu
Video:
PAL 4:3 (720x576) VBR
English Language Unit :
Root Menu
VTS_02 Menu
Video:
PAL 4:3 (720x576) VBR
Audio:
Not specified (Dolby AC3, 2 ch)
English Language Unit :
Root Menu
VTS_03 Menu
Video:
PAL 4:3 (720x576) VBR
English Language Unit :
Root Menu
VTS_04 Menu
Video:
PAL 4:3 (720x576) VBR
English Language Unit :
Root Menu
VTS_05 Menu
Video:
PAL 4:3 (720x576) VBR
English Language Unit :
Root Menu
VTS_06 Menu
Video:
PAL 4:3 (720x576) VBR
English Language Unit :
Root Menu
VTS_07 Menu
Video:
PAL 4:3 (720x576) VBR
English Language Unit :
Root Menu
VTS_08 Menu
Video:
PAL 4:3 (720x576) VBR
English Language Unit :
Root Menu
VTS_09 Menu
Video:
PAL 4:3 (720x576) VBR
English Language Unit :
Root Menu

DVDMenu:

       
Скриншоты:
         
         
Время раздачи: С 10 до 22:00
Мужской разговор на NNM-CLUB
Вне форума [Профиль] [ЛС]
Показать сообщения:    
Ответить на тему

Текущее время: Сегодня 14:13

Часовой пояс: GMT + 3



Вы не можете начинать темы
Вы не можете отвечать на сообщения
Вы не можете редактировать свои сообщения
Вы не можете удалять свои сообщения
Вы не можете голосовать в опросах
Вы не можете прикреплять файлы к сообщениям
Вы не можете скачивать файлы