Today is a free download without charge Download

Захватчики / Рейд: слияние и поглощение (1-16 серии из 16) (2009) DVDRip

Reply to topic
 
Author
Message

Omen ®

Longevity: 8 years 11 months

Posts: 181086

Торрент-статистика

Post 13-Jan-2013 09:08

[Quote]

-Захватчики / Рейд: слияние и поглощение (1-16 серии из 16) (2009) DVDRip- Русское название: Захватчики / Рейд: слияние и поглощение
Год выпуска: 2009
Страна: Россия / Твинди
Жанр: мелодрама, криминал-
Премьера:
12 мая 2009
Режиссер: Радда Новикова
Актеры: Дарья Чаруша, Прохор Дубравин, Роман Индык, Сергей Юшкевич, Николай Козак, Алексей Шемес, Игорь Филиппов, Игорь Старосельцев, Вадим Утенков, Алексей Нилов, Владимир Толоконников, Виталий Круглик, Иван Павлов, Андрей Перепечко, Елена Одинцова, Полина Стрельникова, Анна Полупанова, Анна Браун, Валерий Иваков, Валерий Кащеев, Юлианна Михневич, Александр Ефремов...
Описание фильма: Действие фильма происходит в крупном российском городе, где работает группа рейдеров, пиратов двадцать первого века, захватывающих и разоряющих заводы и фабрики.В эту группу предстоит внедриться студентке Лондонского искусствоведческого колледжа Ольге, которая вернулась в Россию из Англии, чтобы отомстить за смерть отца.-Продолжительность: серия: ~ 00:44
Качество видео: DVDRip
Формат: AVI
Видеокодек: DivX
Битрейт видео: ~1428 kbps avg, 25,000 fps, 0.203 bit/pix
Размер кадра: 704x400 (16:9)
Аудиокодек: MP3
Аудио: 48.0 kHz, MP3, 2 ch ~128 Kbps avg
Субтитры: отсутствуют

MediaInfo:

Формат : AVI
Формат/Информация : Audio Video Interleave
Размер файла : 501 Мбайт
Продолжительность : 44 м.
Общий поток : 1566 Кбит/сек
Видео
Идентификатор : 0
Формат : MPEG-4 Visual
Параметр BVOP формата : 1
Параметр QPel формата : Нет
Параметр GMC формата : Без точки перехода
Параметр матрицы формата : Default (H.263)
Режим смешивания : Сжатый битовый поток
Идентификатор кодека : DX50
Идентификатор кодека/Подсказка : DivX 5
Продолжительность : 44 м.
Битрейт : 1428 Кбит/сек
Ширина : 704 пикселя
Высота : 400 пикселей
Соотношение сторон : 16:9
Частота кадров : 25,000 кадров/сек
Цветовое пространство : YUV
Субдискретизация насыщенности : 4:2:0
Битовая глубина : 8 бит
Тип развёртки : Прогрессивная
Метод сжатия : С потерями
Бит/(Пиксели*Кадры) : 0.203
Размер потока : 457 Мбайт (91%)
Библиотека кодирования : DivX 6.8.5 (UTC 2009-08-20)
Аудио
Идентификатор : 1
Формат : MPEG Audio
Версия формата : Version 1
Профиль формата : Layer 3
Режим : Joint stereo
Расширение режима : MS Stereo
Идентификатор кодека : 55
Идентификатор кодека/Подсказка : MP3
Продолжительность : 44 м.
Вид битрейта : Постоянный
Битрейт : 128 Кбит/сек
Каналы : 2 канала
Частота : 48,0 КГц
Метод сжатия : С потерями
Размер потока : 40,9 Мбайт (8%)
Выравнивание : Соединение по промежуткам
Продолжительность промежутка : 40 мс. (1,00 видеокадр)
Время предзагрузки промежутка : 504 мс.
Библиотека кодирования : LAME3.97b
Скриншоты:
         
         
Other forum [Profile] [PM]
Display posts from previous:    
Reply to topic

The time now is: Today 21:16

All times are GMT + 3 Hours



You cannot post new topics in this forum
You cannot reply to topics in this forum
You cannot edit your posts in this forum
You cannot delete your posts in this forum
You cannot vote in polls in this forum
You cannot attach files in this forum
You cannot download files in this forum