Сегодня идет свободное скачивание без начисления Download

По семейным обстоятельствам (1977) [H.264] DVDRip

Ответить на тему
 
Автор
Сообщение

Omen ®

Стаж: 6 лет

Сообщений: 184329

Торрент-статистика

Пост 13-Янв-2013 07:36

[Цитировать]

-По семейным обстоятельствам (1977) DVDRip- Русское название: По семейным обстоятельствам
Год выпуска: 1977
Жанр: Комедия, Мелодрама
Описание фильма:
Режиссер поставил замечательную мелодраму с элементами комедии, рассказывающую о жизни, любви, семье, семейных проблемах, взаимоотношениях между родителями и детьми, тещами, свекровями.
Режиссер: Алексей Коренев
Актеры:
Галина Польских, Ролан Быков, Евгений Евстигнеев, Марина Дюжева, Евгений Стеблов, Анатолий Папанов, Евгения Ханаева, Бухути Закариадзе, Людмила Зайцева, Нина Дорошина, Юрий Кузьменков, Лев Дуров, Николай Парфенов, Владимир Басов
Продолжительность: 02:08:51

Видеокодек: MPEG-4 AVC/H.264
Битрейт видео: ~2000 Kbps
Размер кадра: 720x576
Качество видео: DVDRip
Аудиокодек: AC3 5.1
Битрейт аудио: 320 Kbps

Media info

General
Unique ID : 179887708581145846821994453819420223799 (0x87551CCA1240C123A37CF50A1D86A937)
Complete name : По семейным обстоятельствам.mkv
Format : Matroska
Format version : Version 2
File size : 2.09 GiB
Duration : 2h 8mn
Overall bit rate : 2 324 Kbps
Movie name : По семейным обстоятельствам (rip by smithland)
Encoded date : UTC 2013-01-12 20:52:33
Writing application : mkvmerge v5.8.0 ('No Sleep / Pillow')
Writing library : libebml v1.2.3 + libmatroska v1.3.0
Attachment : Yes
Video
ID : 1
Format : AVC
Format/Info : Advanced Video Codec
Format profile : [url=mailto:[email protected]][email protected][/url]
Format settings, CABAC : Yes
Format settings, ReFrames : 10 frames
Codec ID : V_MPEG4/ISO/AVC
Duration : 2h 8mn
Bit rate : 2 000 Kbps
Width : 720 pixels
Height : 576 pixels
Display aspect ratio : 4:3
Frame rate mode : Constant
Frame rate : 25.000 fps
Standard : PAL
Color space : YUV
Chroma subsampling : 4:2:0
Bit depth : 8 bits
Scan type : Progressive
Bits/(Pixel*Frame) : 0.193
Stream size : 1.76 GiB (84%)
Writing library : x264 core 129 r2230
Encoding settings : cabac=1 / ref=10 / deblock=1:-1:1 / analyse=0x3:0x133 / me=esa / subme=10 / psy=1 / psy_rd=2.40:0.85 / mixed_ref=0 / me_range=32 / chroma_me=1 / trellis=2 / 8x8dct=1 / cqm=0 / deadzone=21,11 / fast_pskip=1 / chroma_qp_offset=-4 / threads=12 / lookahead_threads=2 / sliced_threads=0 / nr=0 / decimate=1 / interlaced=0 / bluray_compat=0 / constrained_intra=0 / bframes=4 / b_pyramid=2 / b_adapt=1 / b_bias=0 / direct=3 / weightb=0 / open_gop=1 / weightp=0 / keyint=250 / keyint_min=25 / scenecut=60 / intra_refresh=0 / rc_lookahead=40 / rc=abr / mbtree=1 / bitrate=2000 / ratetol=1.0 / qcomp=0.50 / qpmin=10 / qpmax=69 / qpstep=4 / vbv_maxrate=24000 / vbv_bufsize=24000 / nal_hrd=none / ip_ratio=1.40 / aq=1:2.00
Language : Russian
Default : Yes
Forced : Yes
Audio
ID : 2
Format : AC-3
Format/Info : Audio Coding 3
Mode extension : CM (complete main)
Format settings, Endianness : Big
Codec ID : A_AC3
Duration : 2h 8mn
Bit rate mode : Constant
Bit rate : 320 Kbps
Channel(s) : 6 channels
Channel positions : Front: L C R, Side: L R, LFE
Sampling rate : 48.0 KHz
Bit depth : 16 bits
Compression mode : Lossy
Delay relative to video : -5ms
Stream size : 295 MiB (14%)
Language : Russian
Default : Yes
Forced : Yes
Скриншоты:
Сравнение с исходным DVD -->
Исходник
         
         
Вне форума [Профиль] [ЛС]
Показать сообщения:    
Ответить на тему

Текущее время: Сегодня 23:39

Часовой пояс: GMT + 3



Вы не можете начинать темы
Вы не можете отвечать на сообщения
Вы не можете редактировать свои сообщения
Вы не можете удалять свои сообщения
Вы не можете голосовать в опросах
Вы не можете прикреплять файлы к сообщениям
Вы не можете скачивать файлы