Today is a free download without charge Download

Джамайка (1-90 серии из 90) (2012) SATRip

Reply to topic
 
Author
Message

Omen ®

Longevity: 8 years 11 months

Posts: 181086

Торрент-статистика

Post 13-Jan-2013 04:28

[Quote]

-Джамайка (1-90 серии из 90) (2012) SATRip- Оригинальное название: Джамайка
Год выпуска: 2012
Страна: Россия, Украина / Киевтелефильм по заказу канала Украина
Жанр: мелодрама-
Премьера:
3 сентября 2012 (ТРК Украина)
Режиссер: Игорь Забара, Олег Масленников
Актеры: Людмила Свитова, Дарья Повереннова, Максим Радугин, Наталья Рудова, Мария Луговая, Елена Бондарева-Репина, Иван Шабалтас, Алла Масленникова, Игорь Славинский, Софья Письман, Дмитрий Журавлёв, Кирилл Золыгин, Алена Алымова, Юрий Гребельник, Елена Баламутова, Виктория Токманенко, Фёдор Гуринец, Алексей Череватенко, Михаил Пшеничный, Вита Смачелюк, Оксана Сташенко, Виталий Иванченко, Анна Тамбова, Екатерина Кистень, Дмитрий Суржиков, Олег Треповский...

Описание фильма:
Главная героиня сериала Наташа по прозвищу Джамайка живет в крайней бедности, всю жизнь называет мамой чужую женщину и ничего не знает о своем настоящем происхождении. Чтобы как-то сводить концы с концами, девушка поет на улицах и мечтает стать певицей. Но у жизни свои законы. В 17 лет по ложному обвинению ее арестовывают. Во время расследования дела Джамайка влюбляется в следователя. Тот не может ответить взаимностью, ведь у него есть молодая жена и ребенок. Он отказывается вести дело Джамайки. Лишившись шанса на объективное расследование, Наташа попадает в тюрьму. Герои встретятся через несколько лет, снова вспыхнет страсть, и снова между ними будет стоять женщина...-Продолжительность: серия ~ 00:45
Качество видео: SATRip
Видеокодек: XviD
Формат: AVI
Битрейт видео: ~1665 kbps avg
Размер кадра: 704x384 (1,85:1)
Аудиокодек: MP3
Битрейт аудио: 48 kHz, MP3, 2 ch, ~192 .00 kbps avg

MediaInfo:

Формат : AVI
Формат/Информация : Audio Video Interleave
Размер файла : 606 Мбайт
Продолжительность : 45 м.
Общий поток : 1867 Кбит/сек
Программа кодирования : VirtualDubModRus 1.5.10.2 (build 2542/release)
Библиотека кодирования : VirtualDubMod build 2542/release
Видео
Идентификатор : 0
Формат : MPEG-4 Visual
Профиль формата : Advanced [email protected]
Параметр BVOP формата : 2
Параметр QPel формата : Нет
Параметр GMC формата : Без точки перехода
Параметр матрицы формата : Default (H.263)
Режим смешивания : Сжатый битовый поток
Идентификатор кодека : XVID
Идентификатор кодека/Подсказка : XviD
Продолжительность : 45 м.
Битрейт : 1665 Кбит/сек
Ширина : 704 пикселя
Высота : 384 пикселя
Соотношение сторон : 5:4
Соотношение сторон в оригинале : 1,85:1
Частота кадров : 25,000 кадров/сек
Цветовое пространство : YUV
Субдискретизация насыщенности : 4:2:0
Битовая глубина : 8 бит
Тип развёртки : Прогрессивная
Метод сжатия : С потерями
Бит/(Пиксели*Кадры) : 0.246
Размер потока : 540 Мбайт (89%)
Библиотека кодирования : XviD 64
Аудио
Идентификатор : 1
Формат : MPEG Audio
Версия формата : Version 1
Профиль формата : Layer 3
Режим : Joint stereo
Идентификатор кодека : 55
Идентификатор кодека/Подсказка : MP3
Продолжительность : 45 м.
Вид битрейта : Постоянный
Битрейт : 192 Кбит/сек
Каналы : 2 канала
Частота : 48,0 КГц
Метод сжатия : С потерями
Размер потока : 62,3 Мбайт (10%)
Выравнивание : Разделение по промежуткам
Продолжительность промежутка : 40 мс. (1,00 видеокадр)
Время предзагрузки промежутка : 500 мс.
Скриншоты:
         
         
24/7
Other forum [Profile] [PM]
Display posts from previous:    
Reply to topic

The time now is: Today 08:46

All times are GMT + 3 Hours



You cannot post new topics in this forum
You cannot reply to topics in this forum
You cannot edit your posts in this forum
You cannot delete your posts in this forum
You cannot vote in polls in this forum
You cannot attach files in this forum
You cannot download files in this forum