Today is a free download without charge Download

Медея / Medea (Пьер Паоло Пазолини / Pier Paolo Pasolini) [1969, Франция, Италия, Германия (ФРГ), драма, BDRip 720p] 2х DVO + Sub Rus, Eng + Original Ita

Reply to topic
 
Author
Message

Omen ®

Longevity: 8 years 5 months

Posts: 181087

Торрент-статистика

Post 13-Jan-2013 01:24

[Quote]

Медея / Medea
Страна: Франция, Италия, Германия (ФРГ)
Жанр: драма
Год выпуска: 1969
Продолжительность: 01:51:01
Перевод:
Профессиональный (двухголосый закадровый) Кармен Видео
Профессиональный (двухголосый закадровый)
Cубтитры: русские, английские
Оригинальная аудиодорожка: итальянский-Режиссер: Пьер Паоло Пазолини / Pier Paolo Pasolini
В ролях: Мария Каллас, Массимо Джиротти, Лоран Терзиефф, Джузеппе Джентиле, Маргарет Клементи, Пол Джабара, Герард Вайсс, Серджо Трамонти, Луиджи Барбини
Описание: В фильме мало места уделено «затертому» сюжету об «аргонавтах», можно сказать упоминается об этом вскользь. Причем аргонавты показаны отнюдь не романтично героически, а скорее напоминают наемников-мародеров. Большая же часть фильма посвящена второй половине жизни Медеи и Ясона: встреча, любовь и расставание. Брошенная, и даже изгнанная Медея не может простить коварства своего бывшего возлюбленного, променявшего ее ради свадьбы с Глоцией, дочью короля Креона. Она начинает мщение с помощью своих магических чар.
IMDb || КиноПоиск-Тип релиза: BDRip 720p [Ebp]
Контейнер: MKV
Видео: H.264/AVC, 1280x692 at 23.976 fps, ~9683 kbps
Аудио#1: Russian: 48 kHz, AC3, 2/0 (L,R) ch, 192.00 kbps |Двухголосый закадровый, Кармен Видео| (thx Diablo)
Аудио#2: Russian: 48 kHz, AC3, 2/0 (L,R) ch, 192.00 kbps |Двухголосый закадровый|
Аудио#3: Italian: 48 kHz/16-bit, FLAC 2.0, 290 kbps
Формат субтитров: softsub (SRT)
Сэмпл

MediaInfo

x264.INFO

x264 [info]: frame I:1005 Avg QP:15.07 size:152621
x264 [info]: frame P:28817 Avg QP:17.26 size: 84870
x264 [info]: frame B:129874 Avg QP:19.27 size: 42054
x264 [info]: consecutive B-frames: 1.0% 1.2% 4.4% 11.1% 12.3% 39.8% 11.2% 7.1% 7.0% 4.9%
x264 [info]: SSIM Mean Y:0.9745070 (15.936db)
Format : Matroska
Format version : Version 2
File size : 8.03 GiB
Duration : 1h 51mn
Overall bit rate mode : Variable
Overall bit rate : 10.4 Mbps
Encoded date : UTC 2012-12-28 00:09:20
Writing application : mkvmerge v5.0.1 ('Es ist Sommer') built on Nov 6 2011 16:23:40
Writing library : libebml v1.2.2 + libmatroska v1.3.0
Video
ID : 1
Format : AVC
Format/Info : Advanced Video Codec
Format profile : [email protected]
Format settings, CABAC : Yes
Format settings, ReFrames : 9 frames
Codec ID : V_MPEG4/ISO/AVC
Duration : 1h 51mn
Nominal bit rate : 9 683 Kbps
Width : 1 280 pixels
Height : 692 pixels
Display aspect ratio : 1.850
Frame rate : 23.976 fps
Color space : YUV
Chroma subsampling : 4:2:0
Bit depth : 8 bits
Scan type : Progressive
Bits/(Pixel*Frame) : 0.456
Writing library : x264 core 129 r2230 1cffe9f
Encoding settings : cabac=1 / ref=9 / deblock=1:-3:-3 / analyse=0x3:0x133 / me=umh / subme=11 / psy=1 / psy_rd=0.80:0.06 / mixed_ref=1 / me_range=32 / chroma_me=1 / trellis=2 / 8x8dct=1 / cqm=0 / deadzone=21,11 / fast_pskip=0 / chroma_qp_offset=-3 / threads=12 / lookahead_threads=2 / sliced_threads=0 / nr=0 / decimate=0 / interlaced=0 / bluray_compat=0 / constrained_intra=0 / bframes=9 / b_pyramid=2 / b_adapt=2 / b_bias=0 / direct=3 / weightb=1 / open_gop=0 / weightp=2 / keyint=250 / keyint_min=23 / scenecut=40 / intra_refresh=0 / rc=2pass / mbtree=0 / bitrate=9683 / ratetol=1.0 / qcomp=0.75 / qpmin=0 / qpmax=69 / qpstep=4 / cplxblur=20.0 / qblur=0.5 / ip_ratio=1.40 / pb_ratio=1.30 / aq=1:0.77
Language : Italian
Default : Yes
Forced : No
Matrix coefficients : BT.709-5, BT.1361, IEC 61966-2-4 709, SMPTE RP177
Audio #1
ID : 2
Format : AC-3
Format/Info : Audio Coding 3
Mode extension : CM (complete main)
Codec ID : A_AC3
Duration : 1h 51mn
Bit rate mode : Constant
Bit rate : 192 Kbps
Channel(s) : 2 channels
Channel positions : Front: L R
Sampling rate : 48.0 KHz
Bit depth : 16 bits
Compression mode : Lossy
Stream size : 152 MiB (2%)
Title : DVO |R5|
Language : Russian
Default : Yes
Forced : No
Audio #2
ID : 3
Format : AC-3
Format/Info : Audio Coding 3
Mode extension : CM (complete main)
Codec ID : A_AC3
Duration : 1h 51mn
Bit rate mode : Constant
Bit rate : 192 Kbps
Channel(s) : 2 channels
Channel positions : Front: L R
Sampling rate : 48.0 KHz
Bit depth : 16 bits
Compression mode : Lossy
Stream size : 152 MiB (2%)
Title : DVO
Language : Russian
Default : No
Forced : No
Audio #3
ID : 4
Format : FLAC
Format/Info : Free Lossless Audio Codec
Codec ID : A_FLAC
Duration : 1h 51mn
Bit rate mode : Variable
Channel(s) : 2 channels
Sampling rate : 48.0 KHz
Bit depth : 16 bits
Writing library : libFLAC 1.2.1 (UTC 2007-09-17)
Language : Italian
Default : No
Forced : No
Text #1
ID : 5
Format : UTF-8
Codec ID : S_TEXT/UTF8
Codec ID/Info : UTF-8 Plain Text
Title : R5
Language : Russian
Default : No
Forced : No
Text #2
ID : 6
Format : UTF-8
Codec ID : S_TEXT/UTF8
Codec ID/Info : UTF-8 Plain Text
Language : Russian
Default : No
Forced : No
Text #3
ID : 7
Format : UTF-8
Codec ID : S_TEXT/UTF8
Codec ID/Info : UTF-8 Plain Text
Language : English
Default : No
Forced : No

Скриншоты

Ebp vs Source
Other forum [Profile] [PM]
Display posts from previous:    
Reply to topic

The time now is: Today 13:00

All times are GMT + 3 Hours



You cannot post new topics in this forum
You cannot reply to topics in this forum
You cannot edit your posts in this forum
You cannot delete your posts in this forum
You cannot vote in polls in this forum
You cannot attach files in this forum
You cannot download files in this forum