Today is a free download without charge Download

Фитцкарральдо / Фицкаральдо / Fitzcarraldo (Вернер Херцог / Werner Herzog) [1982, Германия (ФРГ), Перу, драма, приключения, биографический, BDRip 720p] MVO + VO + Eng + Sub Rus, Eng + Original Ger

Reply to topic
 
Author
Message

Omen ®

Longevity: 8 years 5 months

Posts: 181087

Торрент-статистика

Post 13-Jan-2013 01:24

[Quote]

Фицкарральдо / Fitzcarraldo
Страна: Германия (ФРГ), Перу
Жанр: драма, приключения, биографический
Год выпуска: 1982
Продолжительность: 02:37:12-Перевод 1: Профессиональный (многоголосый закадровый)
Перевод 2: Одноголосый закадровый
Cубтитры: русские, английские
Оригинальная аудиодорожка: немецкий-Режиссер: Вернер Херцог / Werner Herzog-В ролях: Клаус Кински, Клаудия Кардинале, Мигель Анхел Фуэнтес, Пауль Хиттшер, Жан-Клод Дрейфюс, Димитр Петков, Хосе Льюгой, Питер Берлинг, Уэрекеке Энрике Бохоркес, Гранде Отело, Давид Перес Эспиноза, Милтон Насименто-Описание: Меломан Брайан Фицджеральд, которого индейцы называют Фиццкарральдо, одержим идеей построить в родном городке Икитосе настоящий оперный театр. Для этого он затевает безумную авантюру, причем на последние деньги, — отправляется на поиски каучуковой плантации в джунглях Амазонки.-за рип спасибо [email protected]-Сэмпл: [url=http://narod.ru/disk/65392284001.9a2df414135db62c2031b685c095c08f/Fitzcarraldo.1982.BDRip720p%20(1)-002.mkv.html]http://narod.ru/disk/65392284001.9a2df414135db62c20...(1)-002.mkv.html[/url]-Тип релиза: BDRip 720p
Контейнер: MKV-Видео: 1280x688 (1.85:1); 5275 Kbps; 23.976 fps; 0.250 bpp
Аудио 1: Russian; AC3; 48.0 KHz; 2ch; 192 Kbps
Аудио 2: Russian; AC3; 48.0 KHz; 2ch; 192 Kbps
Аудио 3: English; AC3; 48.0 KHz; 2ch; 256 Kbps
Аудио 4: German; AC3; 48.0 KHz; 6ch; 640 Kbps
Формат субтитров: softsub (SRT)

x264

x264 [info]: frame I:1169 Avg QP:19.10 size:133262
x264 [info]: frame P:43395 Avg QP:21.75 size: 51349
x264 [info]: frame B:181585 Avg QP:23.87 size: 21122

MediaInfo

Format : Matroska
Format version : Version 4 / Version 2
File size : 7.20 GiB
Duration : 2h 37mn
Overall bit rate : 6 557 Kbps
Movie name : Fitzcarraldo (1982) BDRip
Encoded date : UTC 2013-01-12 03:53:02
Writing application : mkvmerge v5.9.0 ('On The Loose') built on Dec 31 2012 17:36:59
Writing library : libebml v1.3.0 + libmatroska v1.4.0
Video
ID : 1
Format : AVC
Format/Info : Advanced Video Codec
Format profile : [email protected]
Format settings, CABAC : Yes
Format settings, ReFrames : 9 frames
Codec ID : V_MPEG4/ISO/AVC
Duration : 2h 37mn
Bit rate : 5 275 Kbps
Width : 1 280 pixels
Height : 688 pixels
Display aspect ratio : 1.85:1
Frame rate mode : Constant
Frame rate : 23.976 fps
Color space : YUV
Chroma subsampling : 4:2:0
Bit depth : 8 bits
Scan type : Progressive
Bits/(Pixel*Frame) : 0.250
Stream size : 5.65 GiB (78%)
Title : Fitzcarraldo (1982) BDRip
Writing library : x264 core 129 r2230 1cffe9f
Encoding settings : cabac=1 / ref=9 / deblock=1:-1:-1 / analyse=0x3:0x133 / me=umh / subme=11 / psy=1 / psy_rd=1.00:0.15 / mixed_ref=1 / me_range=32 / chroma_me=1 / trellis=2 / 8x8dct=1 / cqm=0 / deadzone=21,11 / fast_pskip=0 / chroma_qp_offset=-3 / threads=6 / lookahead_threads=1 / sliced_threads=0 / nr=0 / decimate=1 / interlaced=0 / bluray_compat=0 / constrained_intra=0 / bframes=10 / b_pyramid=2 / b_adapt=2 / b_bias=0 / direct=3 / weightb=1 / open_gop=0 / weightp=2 / keyint=240 / keyint_min=23 / scenecut=40 / intra_refresh=0 / rc=2pass / mbtree=0 / bitrate=5275 / ratetol=1.0 / qcomp=0.60 / qpmin=0 / qpmax=69 / qpstep=4 / cplxblur=20.0 / qblur=0.5 / ip_ratio=1.40 / pb_ratio=1.30 / aq=1:1.00
Language : English
Default : Yes
Forced : No
Audio #1
ID : 2
Format : AC-3
Format/Info : Audio Coding 3
Mode extension : CM (complete main)
Format settings, Endianness : Big
Codec ID : A_AC3
Duration : 2h 37mn
Bit rate mode : Constant
Bit rate : 192 Kbps
Channel(s) : 2 channels
Channel positions : Front: L R
Sampling rate : 48.0 KHz
Bit depth : 16 bits
Compression mode : Lossy
Stream size : 216 MiB (3%)
Title : MVO
Language : Russian
Default : Yes
Forced : No
Audio #2
ID : 3
Format : AC-3
Format/Info : Audio Coding 3
Mode extension : CM (complete main)
Format settings, Endianness : Big
Codec ID : A_AC3
Duration : 2h 37mn
Bit rate mode : Constant
Bit rate : 192 Kbps
Channel(s) : 2 channels
Channel positions : Front: L R
Sampling rate : 48.0 KHz
Bit depth : 16 bits
Compression mode : Lossy
Stream size : 216 MiB (3%)
Title : AVO
Language : Russian
Default : No
Forced : No
Audio #3
ID : 4
Format : AC-3
Format/Info : Audio Coding 3
Mode extension : CM (complete main)
Format settings, Endianness : Big
Codec ID : A_AC3
Duration : 2h 37mn
Bit rate mode : Constant
Bit rate : 256 Kbps
Channel(s) : 2 channels
Channel positions : Front: L R
Sampling rate : 48.0 KHz
Bit depth : 16 bits
Compression mode : Lossy
Stream size : 288 MiB (4%)
Title : AC3 2.0 256 English
Language : English
Default : No
Forced : No
Audio #4
ID : 5
Format : AC-3
Format/Info : Audio Coding 3
Mode extension : CM (complete main)
Format settings, Endianness : Big
Codec ID : A_AC3
Duration : 2h 37mn
Bit rate mode : Constant
Bit rate : 640 Kbps
Channel(s) : 6 channels
Channel positions : Front: L C R, Side: L R, LFE
Sampling rate : 48.0 KHz
Bit depth : 16 bits
Compression mode : Lossy
Stream size : 720 MiB (10%)
Title : AC3 5.1 640 German
Language : German
Default : No
Forced : No
Text #1
ID : 6
Format : UTF-8
Codec ID : S_TEXT/UTF8
Codec ID/Info : UTF-8 Plain Text
Language : Russian
Default : No
Forced : No
Text #2
ID : 7
Format : UTF-8
Codec ID : S_TEXT/UTF8
Codec ID/Info : UTF-8 Plain Text
Language : English
Default : No
Forced : No
Menu
00:00:00.000 : de:00:00:00.000
00:10:13.488 : de:00:10:13.488
00:19:18.115 : de:00:19:18.115
00:25:50.257 : de:00:25:50.257
00:30:44.259 : de:00:30:44.259
00:37:48.224 : de:00:37:48.224
00:48:01.295 : de:00:48:01.295
00:55:50.055 : de:00:55:50.055
00:59:28.857 : de:00:59:28.857
01:04:00.128 : de:01:04:00.128
01:08:49.500 : de:01:08:49.500
01:21:22.336 : de:01:21:22.336
01:33:44.452 : de:01:33:44.452
01:39:39.223 : de:01:39:39.223
01:54:40.457 : de:01:54:40.457
02:00:44.654 : de:02:00:44.654
02:10:06.507 : de:02:10:06.507
02:19:03.794 : de:02:19:03.794

Скриншоты

Other forum [Profile] [PM]
Display posts from previous:    
Reply to topic

The time now is: Today 04:12

All times are GMT + 3 Hours



You cannot post new topics in this forum
You cannot reply to topics in this forum
You cannot edit your posts in this forum
You cannot delete your posts in this forum
You cannot vote in polls in this forum
You cannot attach files in this forum
You cannot download files in this forum