Today is a free download without charge Download

Игра смерти / Game of Death (Джорджо Серафини / Georgio Serafini) [2010, США, боевик, триллер, BDRip 720p] [Uncut] MVO (РенТВ) + Original Eng

Reply to topic
 
Author
Message

Omen ®

Longevity: 8 years 5 months

Posts: 181087

Торрент-статистика

Post 13-Jan-2013 01:24

[Quote]

Игра смерти / Game of Death / Uncut
Страна: США
Жанр: боевик, триллер
Год выпуска: 2010
Продолжительность: 01:37:56
Перевод: Профессиональный (многоголосый закадровый) РенТВ
Cубтитры: нет
Оригинальная аудиодорожка: английский
Режиссер: Джорджо Серафини / Georgio Serafini
В ролях: Уэсли Снайпс, Зои Белл, Гэри Дэниелс, Роберт Дави, Саймон Ри, Ричард Готери, Владимир Тевловский, Ху Сунг Пак, Лэйдон Драммонд, Стэйси Хэдкости, Дарси Лейтзингер
Описание: Защищая видного дипломата, его личный телохранитель со своей командой оказываются c ранениями в больнице, где знакомятся с медсестрой под прикрытием. Они решают объединится, для обороны дипломата, но в дальнейшем медсестра понимает, что ситуация складывается совсем не так, как хотелось бы всем. Каждый из компании становится участником одной игры смерти.
Сэмпл: http://multi-up.com/815940
Тип релиза: BDRip 720p
Контейнер: MKV
Видео: AVC, 1280x544 (2.35), 23.976 fps, 4 884 Kbps (0.283 bit/pixel)
Аудио 1: AC-3, 48.0 KHz, 2 ch, 192 Kbps, CBR (Russian)
Аудио 2: DTS, 48.0 KHz, 6 ch, 1 510 Kbps, CBR (English)

MediaInfo

Общее
Уникальный идентификатор : 211469352204029647323326105141309178448 (0x9F178409B2E1325A9AADAFB5E9B58250)
Полное имя : K:\МОИ РАЗДАЧИ\game-of-death-uncut-720p.mkv
Формат : Matroska
Версия формата : Version 1
Размер файла : 4,51 Гбайт
Продолжительность : 1 ч. 37 м.
Общий поток : 6587 Кбит/сек
Дата кодирования : UTC 2013-01-12 19:09:19
Программа кодирования : mkvmerge v2.1.0 ('Another Place To Fall') built on Aug 19 2007 13:45:34
Библиотека кодирования : libebml v0.7.7 + libmatroska v0.8.1
Видео
Идентификатор : 1
Формат : AVC
Формат/Информация : Advanced Video Codec
Профиль формата : [email protected]
Параметр CABAC формата : Да
Параметр ReFrames формата : 5 кадров
Идентификатор кодека : V_MPEG4/ISO/AVC
Продолжительность : 1 ч. 37 м.
Битрейт : 4884 Кбит/сек
Ширина : 1280 пикселей
Высота : 544 пикселя
Соотношение сторон : 2,35:1
Частота кадров : 23,976 кадра/сек
Цветовое пространство : YUV
Субдискретизация насыщенности : 4:2:0
Битовая глубина : 8 бит
Тип развёртки : Прогрессивная
Бит/(Пиксели*Кадры) : 0.293
Размер потока : 3,25 Гбайт (72%)
Библиотека кодирования : x264 core 114 r1913 5fd3dce
Настройки программы : cabac=1 / ref=5 / deblock=1:0:0 / analyse=0x3:0x113 / me=umh / subme=7 / psy=1 / psy_rd=1.00:0.00 / mixed_ref=1 / me_range=16 / chroma_me=1 / trellis=1 / 8x8dct=1 / cqm=0 / deadzone=21,11 / fast_pskip=0 / chroma_qp_offset=-2 / threads=12 / sliced_threads=0 / nr=0 / decimate=1 / interlaced=0 / constrained_intra=0 / bframes=3 / b_pyramid=2 / b_adapt=1 / b_bias=0 / direct=1 / weightb=1 / open_gop=0 / weightp=2 / keyint=250 / keyint_min=23 / scenecut=40 / intra_refresh=0 / rc_lookahead=40 / rc=2pass / mbtree=1 / bitrate=4884 / ratetol=1.0 / qcomp=0.60 / qpmin=0 / qpmax=69 / qpstep=4 / cplxblur=20.0 / qblur=0.5 / ip_ratio=1.40 / aq=1:1.00
Язык : German
Default : Да
Forced : Нет
Аудио #1
Идентификатор : 2
Формат : AC-3
Формат/Информация : Audio Coding 3
Расширение режима : CM (complete main)
Идентификатор кодека : A_AC3
Продолжительность : 1 ч. 37 м.
Вид битрейта : Постоянный
Битрейт : 192 Кбит/сек
Каналы : 2 канала
Расположение каналов : Front: L R
Частота : 48,0 КГц
Битовая глубина : 16 бит
Метод сжатия : С потерями
Размер потока : 134 Мбайт (3%)
Язык : Russian
Default : Да
Forced : Нет
Аудио #2
Идентификатор : 3
Формат : DTS
Формат/Информация : Digital Theater Systems
Идентификатор кодека : A_DTS
Продолжительность : 1 ч. 37 м.
Вид битрейта : Постоянный
Битрейт : 1510 Кбит/сек
Каналы : 6 каналов
Расположение каналов : Front: L C R, Side: L R, LFE
Частота : 48,0 КГц
Битовая глубина : 24 бит
Метод сжатия : С потерями
Размер потока : 1,03 Гбайт (23%)
Язык : English
Default : Нет
Forced : Нет

Скриншоты


Торрент перезалит 12.01.13 - удалены немецкие субтитры и звуковая дорожка
Other forum [Profile] [PM]
Display posts from previous:    
Reply to topic

The time now is: Today 12:05

All times are GMT + 3 Hours



You cannot post new topics in this forum
You cannot reply to topics in this forum
You cannot edit your posts in this forum
You cannot delete your posts in this forum
You cannot vote in polls in this forum
You cannot attach files in this forum
You cannot download files in this forum