Today is a free download without charge Download

Мальчишник в Новом Орлеане / Mardi Gras: Spring Break (Фил Дорнфелд / Phil Dornfeld) [2011, США, комедия, WEB-DL 720p] MVO + ENG

Reply to topic
 
Author
Message

Omen ®

Longevity: 8 years 5 months

Posts: 181087

Торрент-статистика

Post 13-Jan-2013 01:24

[Quote]

Мальчишник в Новом Орлеане /
Mardi Gras: Spring Break
-Страна: США
Жанр: комедия
Год выпуска: 2011
Продолжительность: 01:27:54
Перевод: Профессиональный (многоголосый закадровый)
Cубтитры: нет
Оригинальная аудиодорожка: английская-Режиссер: Фил Дорнфелд / Phil Dornfeld
В ролях: Николас Д’Агосто , Джош Гад , Брэт Харрисон , Ариэль Кеббел , Дэннил Эклс , Чарльз Шонесси , Джесси О’Донохью , Бекки О’Донахью , Кармен Электра , Реджина Холл , Джек Беттс , Мими Коззенс-Описание: История, лежащая в основе сюжета, расскажет о похождениях молодых студентов из колледжа. Три приятеля отважились посетить Новый Орлеан — место великого пышного празднования Марди Гра, который схож по своему празднованию со всем известной Масленицей. Приехав в неизвестный город, они становятся участниками массовых гуляний и всенародного веселья. Однако празднество влечет и смешные случайности.-
-Качество видео: WEB-DL 720p (источник iTunes (US))
Формат видео: MKV
Видео: AVC, 1280x718, 4131 Kbps, 23.976 fps
Аудио 1: AC3, 48 KHz, 384 Kbps, 5.1 channels - MVO
Аудио 2: AC3, 48 KHz, 384 Kbps, 5.1 channels - ENG-

Резервные скриншоты




-

MediaInfo

Код:
Format                           : Matroska
Format version                   : Version 2
File size                        : 3.07 GiB
Duration                         : 1h 27mn
Overall bit rate                 : 5 001 Kbps
Movie name                       : Мальчишник в Новом Орлеане / Mardi Gras: Spring Break (2011) WEB-DL 720p
Encoded date                     : UTC 2010-02-22 21:41:31
Writing application              : mkvmerge v5.9.0 ('On The Loose') built on Dec  9 2012 15:37:01
Writing library                  : libebml v1.3.0 + libmatroska v1.4.0
Attachment                       : Yes
Video
ID                               : 1
Format                           : AVC
Format/Info                      : Advanced Video Codec
Format profile                   : [email protected]
Format settings, CABAC           : No
Format settings, ReFrames        : 2 frames
Codec ID                         : V_MPEG4/ISO/AVC
Duration                         : 1h 27mn
Bit rate                         : 4 133 Kbps
Width                            : 1 280 pixels
Height                           : 718 pixels
Display aspect ratio             : 16:9
Frame rate                       : 23.976 fps
Color space                      : YUV
Chroma subsampling               : 4:2:0
Bit depth                        : 8 bits
Scan type                        : Progressive
Bits/(Pixel*Frame)               : 0.188
Stream size                      : 2.54 GiB (83%)
Language                         : English
Default                          : Yes
Forced                           : No
Color primaries                  : BT.709-5, BT.1361, IEC 61966-2-4, SMPTE RP177
Transfer characteristics         : BT.709-5, BT.1361
Matrix coefficients              : BT.709-5, BT.1361, IEC 61966-2-4 709, SMPTE RP177
Audio #1
ID                               : 2
Format                           : AC-3
Format/Info                      : Audio Coding 3
Mode extension                   : CM (complete main)
Codec ID                         : A_AC3
Duration                         : 1h 27mn
Bit rate mode                    : Constant
Bit rate                         : 384 Kbps
Channel(s)                       : 6 channels
Channel positions                : Front: L C R, Side: L R, LFE
Sampling rate                    : 48.0 KHz
Bit depth                        : 16 bits
Compression mode                 : Lossy
Stream size                      : 241 MiB (8%)
Title                            : MVO
Language                         : Russian
Default                          : Yes
Forced                           : No
Audio #2
ID                               : 3
Format                           : AC-3
Format/Info                      : Audio Coding 3
Mode extension                   : CM (complete main)
Codec ID                         : A_AC3
Duration                         : 1h 27mn
Bit rate mode                    : Constant
Bit rate                         : 384 Kbps
Channel(s)                       : 6 channels
Channel positions                : Front: L C R, Side: L R, LFE
Sampling rate                    : 48.0 KHz
Bit depth                        : 16 bits
Compression mode                 : Lossy
Stream size                      : 241 MiB (8%)
Title                            : ENG
Language                         : English
Default                          : No
Forced                           : No
Menu
00:00:00.000                     : en:Chapter 1
00:03:32.000                     : en:Chapter 2
00:09:51.000                     : en:Chapter 3
00:13:58.000                     : en:Chapter 4
00:19:20.000                     : en:Chapter 5
00:24:33.000                     : en:Chapter 6
00:29:08.000                     : en:Chapter 7
00:32:38.000                     : en:Chapter 8
00:37:56.000                     : en:Chapter 9
00:45:53.000                     : en:Chapter 10
00:50:51.000                     : en:Chapter 11
00:55:14.000                     : en:Chapter 12
01:02:00.000                     : en:Chapter 13
01:05:52.000                     : en:Chapter 14
01:11:12.000                     : en:Chapter 15
01:19:40.000                     : en:Chapter 16
Other forum [Profile] [PM]
Display posts from previous:    
Reply to topic

The time now is: Today 10:00

All times are GMT + 3 Hours



You cannot post new topics in this forum
You cannot reply to topics in this forum
You cannot edit your posts in this forum
You cannot delete your posts in this forum
You cannot vote in polls in this forum
You cannot attach files in this forum
You cannot download files in this forum