Today is a free download without charge Download

Отточенное лезвие / Sling Blade (Билли Боб Торнтон / Billy Bob Thornton) [1996, США, драма, BDRip 1080p] 2х MVO + Original + Subs (Rus, Eng)

Reply to topic
 
Author
Message

Omen ®

Longevity: 8 years 5 months

Posts: 181087

Торрент-статистика

Post 13-Jan-2013 01:24

[Quote]

--Отточенное лезвие / Sling Blade«Sometimes a hero comes from the most unlikely place.»- -Год выпуска: 1996
Страна: США
Жанр: Драма
Продолжительность: 02:14:40
Перевод №1: Профессиональный (многоголосый закадровый, West видео)
Перевод №2: Профессиональный (многоголосый закадровый, Премьер)
Субтитры: Русские, Английские-Режиссер: Билли Боб Торнтон / Billy Bob Thornton
Сценарий: Билли Боб Торнтон / Billy Bob Thornton
Продюсер: Дэвид Л. Бушнелл / David L. Bushell, Ларри Майстрич / Larry Meistrich, Брэндон Россер / Brandon Rosser
Оператор: Бэрри Марковиц / Barry Markowitz
Композитор: Даниэль Лануа / Daniel Lanois
В ролях: Билли Боб Торнтон / Billy Bob Thornton (Karl Childers), Дуайт Йоакам / Dwight Yoakam (Doyle Hargraves), Дж.Т. Уолш / J.T. Walsh (Charles Bushman), Джон Риттер / John Ritter (Vaughan Cunningham), Лукас Блэк / Lucas Black (Frank Wheatley), Натали Кэнердей / Natalie Canerday (Linda Wheatley), Джеймс Хэмптон / James Hampton (Jerry Woolridge), Роберт Дюваль / Robert Duvall (Karl's Father), Рик Дайал / Rick Dial (Bill Cox), Брент Бриско / Brent Briscoe (Scooter Hodges), Кристи Уорд / Christine Renee Ward (Melinda), Сара Босс / Sarah Boss (Marsha Dwiggins)-Описание: Карл после совершенного им жестокого преступления провел двадцать пять лет в сумасшедшем доме. Возвратившись в город своей молодости, в один из южных штатов Америки, он ведет себя спокойно и разумно. Это помогает ему найти работу и подружиться с мальчиком и его матерью-вдовой. Однако появление отвратительного и грубого любовника этой женщины ставит Карла перед мучительным выбором и ведет к резким переменам в жизни всех, вовлеченных в эту историю.- -Качество: Blu-ray Rip 1080p
Формат: MKV
Видео: MPEG-4 AVC (H264), 1920x1040, 23.976 fps, High Profile 4.1, ~16660 kbps avg, bit/(pixel*frame) 0.348
Аудио №1: Russian: 48 kHz, DTS, 3/2 (L,C,R,l,r) + LFE ch, ~1510.00 kbps avg многоголосый закадровый (West видео)
Аудио №2: Russian: 48 kHz, DTS, 3/2 (L,C,R,l,r) + LFE ch, ~1510.00 kbps avg многоголосый закадровый (Премьер)
Аудио №3: English: 48 kHz, DTS, 3/2 (L,C,R,l,r) + LFE ch, ~1510.00 kbps avg Original
Аудио №4: English: 48 kHz, AC3, 2.0 (L,R) ch, ~192.00 kbps avg commentary by Billy Bob Thornton

Субтитры : Russian #1, Russian #2, English, English (commentary by Billy Bob Thornton) (Softsub SRT)
Навигация по главам: есть-

MediaInfo

F:\Sling Blade [Отточенное лезвие] (1996) 1920x1040 BDRip RusEngSubsChpt.mkv
General
Unique ID : 225127809529713588480912674653506558872 (0xA95E09F9DB45D3CDB2F4BC1349C2DB98)
Complete name : F:\Sling Blade [Отточенное лезвие] (1996) 1920x1040 BDRip RusEngSubsChpt.mkv
Format : Matroska
Format version : Version 4 / Version 2
File size : 20.1 GiB
Duration : 2h 14mn
Overall bit rate : 21.4 Mbps
Encoded date : UTC 2010-02-22 21:41:31
Writing application : mkvmerge v5.9.0 ('On The Loose') built on Dec 9 2012 15:37:01
Writing library : libebml v1.3.0 + libmatroska v1.4.0
Video #1
ID : 1
Format : AVC
Format/Info : Advanced Video Codec
Format profile : [email protected]
Format settings, CABAC : Yes
Format settings, ReFrames : 4 frames
Codec ID : V_MPEG4/ISO/AVC
Duration : 2h 14mn
Bit rate : 16.7 Mbps
Width : 1 920 pixels
Height : 1 040 pixels
Display aspect ratio : 1.85:1
Frame rate mode : Constant
Frame rate : 23.976 fps
Color space : YUV
Chroma subsampling : 4:2:0
Bit depth : 8 bits
Scan type : Progressive
Bits/(Pixel*Frame) : 0.348
Stream size : 15.3 GiB (76%)
Writing library : x264 core 129 r2230+696+36 4446aa2 tMod+MixAQ [[email protected] X86_64]
Encoding settings : cabac=1 / ref=4 / deblock=1:-3:-2 / analyse=0x3:0x133 / me=umh / subme=11 / psy=1 / fade_compensate=0.00 / psy_rd=1.00:0.00 / mixed_ref=1 / me_range=32 / chroma_me=1 / trellis=2 / 8x8dct=1 / cqm=0 / deadzone=21,11 / fast_pskip=0 / chroma_qp_offset=-2 / threads=12 / lookahead_threads=2 / sliced_threads=0 / nr=0 / decimate=0 / interlaced=0 / bluray_compat=0 / constrained_intra=0 / fgo=0 / bframes=10 / b_pyramid=2 / b_adapt=2 / b_bias=0 / direct=3 / weightb=1 / open_gop=0 / weightp=2 / keyint=240 / keyint_min=23 / scenecut=40 / intra_refresh=0 / rc_lookahead=80 / rc=2pass / mbtree=1 / bitrate=16660 / ratetol=1.0 / qcomp=0.70 / qpmin=0 / qpmax=69 / qpstep=4 / cplxblur=20.0 / qblur=0.5 / ip_ratio=1.40 / aq=3 / aq-strength=1.00 / aq-sensitivity=10.00 / aq-ifactor=1.00 / aq-pfactor=1.00 / aq-bfactor=1.00 / aq2=0
Language : English
Default : Yes
Forced : No
Audio #2
ID : 2
Format : DTS
Format/Info : Digital Theater Systems
Mode : 16
Format settings, Endianness : Big
Codec ID : A_DTS
Duration : 2h 14mn
Bit rate mode : Constant
Bit rate : 1 509 Kbps
Channel(s) : 6 channels
Channel positions : Front: L C R, Side: L R, LFE
Sampling rate : 48.0 KHz
Bit depth : 24 bits
Compression mode : Lossy
Stream size : 1.42 GiB (7%)
Title : MVO DTS 6ch 1510kbps (West видео)
Language : Russian
Default : Yes
Forced : No
Audio #3
ID : 3
Format : DTS
Format/Info : Digital Theater Systems
Mode : 16
Format settings, Endianness : Big
Codec ID : A_DTS
Duration : 2h 14mn
Bit rate mode : Constant
Bit rate : 1 509 Kbps
Channel(s) : 6 channels
Channel positions : Front: L C R, Side: L R, LFE
Sampling rate : 48.0 KHz
Bit depth : 24 bits
Compression mode : Lossy
Stream size : 1.42 GiB (7%)
Title : MVO DTS 6ch 1510kbps (Премьер)
Language : Russian
Default : No
Forced : No
Audio #4
ID : 4
Format : DTS
Format/Info : Digital Theater Systems
Mode : 16
Format settings, Endianness : Big
Codec ID : A_DTS
Duration : 2h 14mn
Bit rate mode : Constant
Bit rate : 1 509 Kbps
Channel(s) : 6 channels
Channel positions : Front: L C R, Side: L R, LFE
Sampling rate : 48.0 KHz
Bit depth : 24 bits
Compression mode : Lossy
Stream size : 1.42 GiB (7%)
Title : Original DTS 6ch 1510kbps
Language : English
Default : No
Forced : No
Audio #5
ID : 5
Format : AC-3
Format/Info : Audio Coding 3
Mode extension : CM (complete main)
Format settings, Endianness : Big
Codec ID : A_AC3
Duration : 2h 14mn
Bit rate mode : Constant
Bit rate : 192 Kbps
Channel(s) : 2 channels
Channel positions : Front: L R
Sampling rate : 48.0 KHz
Bit depth : 16 bits
Compression mode : Lossy
Stream size : 185 MiB (1%)
Title : AC3 2ch 192kbps (commentary by Billy Bob Thornton)
Language : English
Default : No
Forced : No
Text #6
ID : 6
Format : UTF-8
Codec ID : S_TEXT/UTF8
Codec ID/Info : UTF-8 Plain Text
Title : #1
Language : Russian
Default : No
Forced : No
Text #7
ID : 7
Format : UTF-8
Codec ID : S_TEXT/UTF8
Codec ID/Info : UTF-8 Plain Text
Title : #2
Language : Russian
Default : No
Forced : No
Text #8
ID : 8
Format : UTF-8
Codec ID : S_TEXT/UTF8
Codec ID/Info : UTF-8 Plain Text
Language : English
Default : No
Forced : No
Text #9
ID : 9
Format : UTF-8
Codec ID : S_TEXT/UTF8
Codec ID/Info : UTF-8 Plain Text
Title : commentary by Billy Bob Thornton
Language : English
Default : No
Forced : No
Menu
00:00:00.000 : :0:00:00.000
00:07:50.678 : :0:07:50.678
00:17:35.512 : :0:17:35.512
00:21:16.233 : :0:21:16.233
00:24:55.327 : :0:24:55.327
00:29:24.053 : :0:29:24.053
00:35:15.363 : :0:35:15.363
00:39:54.308 : :0:39:54.308
00:44:26.538 : :0:44:26.538
00:52:27.727 : :0:52:27.727
00:59:04.249 : :0:59:04.249
01:04:23.985 : :1:04:23.985
01:12:31.972 : :1:12:31.972
01:16:52.566 : :1:16:52.566
01:22:23.897 : :1:22:23.897
01:26:25.513 : :1:26:25.513
01:31:05.960 : :1:31:05.960
01:34:54.438 : :1:34:54.438
01:37:36.600 : :1:37:36.600
01:43:43.091 : :1:43:43.091
01:51:29.808 : :1:51:29.808
01:57:15.653 : :1:57:15.653
02:01:28.698 : :2:01:28.698
02:06:43.554 : :2:06:43.554
02:10:13.430 : :2:10:13.430

x264 log

x264 [info]: frame I:917 Avg QP:17.40 size:299040 PSNR Mean Y:46.80 U:49.03 V:50.27 Avg:47.51 Global:47.08
x264 [info]: frame P:37959 Avg QP:20.00 size:142709 PSNR Mean Y:43.65 U:47.43 V:49.01 Avg:44.68 Global:44.26
x264 [info]: frame B:154852 Avg QP:21.66 size: 71890 PSNR Mean Y:42.50 U:46.73 V:48.71 Avg:43.61 Global:43.04
x264 [info]: consecutive B-frames: 0.7% 0.6% 1.2% 34.0% 14.0% 24.2% 10.6% 13.9% 0.5% 0.0% 0.3%
x264 [info]: mb I I16..4: 3.4% 76.4% 20.2%
x264 [info]: mb P I16..4: 0.2% 11.7% 0.6% P16..4: 28.2% 38.0% 14.8% 3.1% 0.1% skip: 3.4%
x264 [info]: mb B I16..4: 0.0% 2.2% 0.0% B16..8: 44.1% 20.4% 4.2% direct:11.8% skip:17.2% L0:41.5% L1:41.3% BI:17.2%
x264 [info]: 8x8 transform intra:93.6% inter:43.6%
x264 [info]: direct mvs spatial:97.7% temporal:2.3%
x264 [info]: coded y,uvDC,uvAC intra: 98.3% 85.1% 60.0% inter: 59.9% 37.3% 11.0%
x264 [info]: i16 v,h,dc,p: 62% 17% 9% 12%
x264 [info]: i8 v,h,dc,ddl,ddr,vr,hd,vl,hu: 7% 5% 12% 12% 16% 13% 12% 12% 12%
x264 [info]: i4 v,h,dc,ddl,ddr,vr,hd,vl,hu: 9% 8% 8% 9% 15% 13% 13% 11% 14%
x264 [info]: i8c dc,h,v,p: 49% 19% 17% 15%
x264 [info]: Weighted P-Frames: Y:98.6% UV:0.6%
x264 [info]: ref P L0: 44.2% 12.1% 29.9% 13.3% 0.5% 0.0%
x264 [info]: ref B L0: 88.8% 8.6% 2.6%
x264 [info]: ref B L1: 94.8% 5.2%
x264 [info]: SSIM Mean Y:0.9660454 (14.691db)
x264 [info]: PSNR Mean Y:42.747 U:46.874 V:48.775 Avg:43.837 Global:43.264 kb/s:16656.91
x264 [info]: encoded 193728 frames, 5.027 fps, 16656.91 kb/s, 16044 MB
x264 [info]: ended at Fri Jan 04 09:34:44 2013
x264 [info]: encoding duration 10:42:15
Other forum [Profile] [PM]
Display posts from previous:    
Reply to topic

The time now is: Today 06:24

All times are GMT + 3 Hours



You cannot post new topics in this forum
You cannot reply to topics in this forum
You cannot edit your posts in this forum
You cannot delete your posts in this forum
You cannot vote in polls in this forum
You cannot attach files in this forum
You cannot download files in this forum