Today is a free download without charge Download

Извлечение / Extracted (Нир Панири / Nir Paniry) [2012, США, фантастика, драма, BDRip 1080p] MVO (BaiBako), Original (Eng) + Sub (Eng, Fin, Swe)

Reply to topic
 
Author
Message

Omen ®

Longevity: 8 years 5 months

Posts: 181087

Торрент-статистика

Post 13-Jan-2013 01:24

[Quote]

Извлечение / Extracted
Страна: США
Студия: New Artists Alliance
Жанр: фантастика, драма
Год выпуска: 2012
Продолжительность: 01:28:53
Перевод: Профессиональный (многоголосый закадровый)
Оригинальная аудиодорожка: английская
Режиссер: Нир Панири / Nir paneer
В ролях: Саша Ройз, Дженни Моллен, Доминик Богарт, Ричард Риле, Ник Джеймисон, Родни Истман, Фрэнк Эшмор, Брэд Калвер, Тай Симпкинс, Сара Томко, Оджи Дьюк, Джен Дэвис, Бернхард Форхер, Роберт Льюис Стефенсон, Джей Бингхэм, Д.Т. Карни, Чак Кобб, Мэтт Фоулер, Каиви Лайман, Чарльз Милано, Эрик Дарнелл Реддинг, Дэвид Салливан, Скотт Восс
Описание: Главный герой Томас Джейкобс изобретает способ проникать в память людей и просматривать их воспоминания «своими глазами». Так он может возвращаться в собственные воспоминания и снова переживать счастливые моменты своей жизни. Но однажды Том вынужден действовать в разрез своим моральным принципам и использовать своё изобретение, чтобы войти в воспоминания одного наркомана и в буквальном смысле слова увидеть, совершал ли он преступление, в котором его обвиняют. Однако по причине повреждённости сознания преступника наркотиками, Том оказывается пойман в ловушке внутри его головы. Теперь ему предстоит прожить в памяти наркомана почти четыре года, до тех пор, пока он не обнаружит долгожданную возможность побега.

Релиз: fanatus
Качество видео: BDRip 1080p
Исходник: Blu-ray disc 1080p (BLUEBIRD)
Контейнер: MKV
Видео: MPEG-4 AVC, 7000 kbps , 1920x798 (2.40:1), 23.976 fps, 0.191 bit/pixel
Аудио 1: русский (AC3, 6 ch, 48 kHz, 640 kbps) MVO (BaiBako)
Аудио 2: английский (DTS, 6 ch, 48 kHz, 1510 kbps) Original
Cубтитры: английские, финские, польские, испанские, шведские
Формат субтитров: softsub (SRT)
Главы: есть

MediaInfo

General
Unique ID : 194558257060982784690996774446388200338 (0x925E8EAC889929649F6FD72B19AFC392)
Complete name : D:\Izvlechenie.2012.x264.BDRip.1080p.fanatus.mkv
Format : Matroska
Format version : Version 2
File size : 5.68 GiB
Duration : 1h 28mn
Overall bit rate : 9 142 Kbps
Movie name : Extracted (2012) - fanatus
Encoded date : UTC 2013-01-04 18:12:59
Writing application : mkvmerge v3.4.0 ('Rapunzel') сборка от May 15 2010 09:38:20
Writing library : libebml v0.8.0 + libmatroska v0.9.0
Video
ID : 1
Format : AVC
Format/Info : Advanced Video Codec
Format profile : [email protected]
Format settings, CABAC : Yes
Format settings, ReFrames : 5 frames
Codec ID : V_MPEG4/ISO/AVC
Duration : 1h 28mn
Bit rate : 7 000 Kbps
Width : 1 920 pixels
Height : 798 pixels
Display aspect ratio : 2.40:1
Frame rate : 23.976 fps
Color space : YUV
Chroma subsampling : 4:2:0
Bit depth : 8 bits
Scan type : Progressive
Bits/(Pixel*Frame) : 0.191
Stream size : 4.23 GiB (74%)
Title : Extracted (2012)
Writing library : x264 core 129 r2230 1cffe9f
Encoding settings : cabac=1 / ref=5 / deblock=1:-3:-3 / analyse=0x3:0x113 / me=tesa / subme=11 / psy=1 / psy_rd=1.05:0.00 / mixed_ref=1 / me_range=48 / chroma_me=1 / trellis=2 / 8x8dct=1 / cqm=0 / deadzone=21,11 / fast_pskip=0 / chroma_qp_offset=-2 / threads=16 / lookahead_threads=2 / sliced_threads=0 / nr=0 / decimate=0 / interlaced=0 / bluray_compat=0 / constrained_intra=0 / bframes=8 / b_pyramid=2 / b_adapt=2 / b_bias=0 / direct=3 / weightb=1 / open_gop=0 / weightp=2 / keyint=240 / keyint_min=23 / scenecut=40 / intra_refresh=0 / rc_lookahead=40 / rc=2pass / mbtree=0 / bitrate=7000 / ratetol=1.0 / qcomp=0.70 / qpmin=0 / qpmax=69 / qpstep=4 / cplxblur=20.0 / qblur=0.5 / vbv_maxrate=50000 / vbv_bufsize=62500 / nal_hrd=none / ip_ratio=1.40 / pb_ratio=1.30 / aq=1:1.05
Language : English
Default : Yes
Forced : No
Color primaries : BT.709-5, BT.1361, IEC 61966-2-4, SMPTE RP177
Transfer characteristics : BT.709-5, BT.1361
Matrix coefficients : BT.709-5, BT.1361, IEC 61966-2-4 709, SMPTE RP177
Audio #1
ID : 2
Format : AC-3
Format/Info : Audio Coding 3
Mode extension : CM (complete main)
Format settings, Endianness : Big
Codec ID : A_AC3
Duration : 1h 28mn
Bit rate mode : Constant
Bit rate : 640 Kbps
Channel(s) : 6 channels
Channel positions : Front: L C R, Side: L R, LFE
Sampling rate : 48.0 KHz
Bit depth : 16 bits
Compression mode : Lossy
Stream size : 407 MiB (7%)
Title : MVO (BaiBako)
Language : Russian
Default : Yes
Forced : Yes
Audio #2
ID : 3
Format : DTS
Format/Info : Digital Theater Systems
Codec ID : A_DTS
Duration : 1h 28mn
Bit rate mode : Constant
Bit rate : 1 510 Kbps
Channel(s) : 6 channels
Channel positions : Front: L C R, Side: L R, LFE
Sampling rate : 48.0 KHz
Bit depth : 24 bits
Compression mode : Lossy
Stream size : 960 MiB (17%)
Title : Original
Language : English
Default : No
Forced : No
Text #1
ID : 4
Format : UTF-8
Codec ID : S_TEXT/UTF8
Codec ID/Info : UTF-8 Plain Text
Language : English
Default : No
Forced : No
Text #2
ID : 5
Format : UTF-8
Codec ID : S_TEXT/UTF8
Codec ID/Info : UTF-8 Plain Text
Language : Finnish
Default : No
Forced : No
Text #3
ID : 6
Format : UTF-8
Codec ID : S_TEXT/UTF8
Codec ID/Info : UTF-8 Plain Text
Language : Polish
Default : No
Forced : No
Text #4
ID : 7
Format : UTF-8
Codec ID : S_TEXT/UTF8
Codec ID/Info : UTF-8 Plain Text
Language : Spanish
Default : No
Forced : No
Text #5
ID : 8
Format : UTF-8
Codec ID : S_TEXT/UTF8
Codec ID/Info : UTF-8 Plain Text
Language : Swedish
Default : No
Forced : No
Menu
00:00:00.000 : en:Chapter 01
00:08:10.948 : en:Chapter 02
00:16:35.994 : en:Chapter 03
00:25:47.003 : en:Chapter 04
00:35:21.953 : en:Chapter 05
00:45:43.991 : en:Chapter 06
00:53:41.968 : en:Chapter 07
01:02:02.927 : en:Chapter 08
01:08:15.925 : en:Chapter 09
01:14:02.896 : en:Chapter 10
01:22:08.924 : en:Chapter 11
01:25:06.893 : en:Chapter 12
01:26:39.944 : en:Chapter 13
01:28:46.904 : en:Chapter 14

x264 [info]

-[NoImage] raw [info]: 1920x798p 1:1 @ 24000/1001 fps (cfr)
-[NoImage] x264 [info]: using SAR=1/1
-[NoImage] x264 [info]: using cpu capabilities: MMX2 SSE2Fast FastShuffle SSEMisalign LZCNT
-[NoImage] x264 [info]: profile High, level 4.1
-[NoImage]
-[NoImage] x264 [info]: frame I:1083 Avg QP:10.18 size:155346
-[NoImage] x264 [info]: frame P:27857 Avg QP:12.37 size: 68435
-[NoImage] x264 [info]: frame B:98930 Avg QP:13.27 size: 26131
-[NoImage] x264 [info]: consecutive B-frames: 3.2% 3.0% 10.8% 6.3% 7.3% 61.6% 3.8% 1.1% 2.8%
-[NoImage] x264 [info]: mb I I16..4: 12.1% 71.5% 16.4%
-[NoImage] x264 [info]: mb P I16..4: 4.3% 19.5% 2.8% P16..4: 26.7% 29.8% 10.5% 0.0% 0.0% skip: 6.4%
-[NoImage] x264 [info]: mb B I16..4: 1.4% 2.7% 0.5% B16..8: 35.6% 22.0% 4.5% direct: 6.5% skip:26.7% L0:48.3% L1:42.2% BI: 9.4%
-[NoImage] x264 [info]: 8x8 transform intra:67.9% inter:49.7%
-[NoImage] x264 [info]: direct mvs spatial:99.7% temporal:0.3%
-[NoImage] x264 [info]: coded y,uvDC,uvAC intra: 67.2% 72.6% 60.8% inter: 23.9% 22.7% 11.4%
-[NoImage] x264 [info]: i16 v,h,dc,p: 63% 11% 7% 19%
-[NoImage] x264 [info]: i8 v,h,dc,ddl,ddr,vr,hd,vl,hu: 10% 10% 20% 8% 10% 10% 10% 10% 12%
-[NoImage] x264 [info]: i4 v,h,dc,ddl,ddr,vr,hd,vl,hu: 15% 12% 35% 5% 7% 7% 6% 6% 7%
-[NoImage] x264 [info]: i8c dc,h,v,p: 46% 29% 16% 9%
-[NoImage] x264 [info]: Weighted P-Frames: Y:2.5% UV:0.8%
-[NoImage] x264 [info]: ref P L0: 57.9% 5.2% 20.5% 8.5% 6.9% 1.0% 0.0%
-[NoImage] x264 [info]: ref B L0: 81.4% 13.2% 4.4% 1.0%
-[NoImage] x264 [info]: ref B L1: 94.0% 6.0%
-[NoImage] x264 [info]: kb/s:6989.78
-[NoImage] encoded 127870 frames, 2.29 fps, 6989.79 kb/s

Скриншот c названием фильма

Сравнение с исходником

Source vs Rip





Other forum [Profile] [PM]
Display posts from previous:    
Reply to topic

The time now is: Today 05:08

All times are GMT + 3 Hours



You cannot post new topics in this forum
You cannot reply to topics in this forum
You cannot edit your posts in this forum
You cannot delete your posts in this forum
You cannot vote in polls in this forum
You cannot attach files in this forum
You cannot download files in this forum