Today is a free download without charge Download

Друзья Питера / Peter's Friends (Кеннет Брана / Kenneth Branagh) [1992, Великобритания, Комедия, Драма, Мелодрама, HDTVRip 720p] 2*MVO + 2*AVO (Михалев, Сербин) + Rus Sub + Original Eng

Reply to topic
 
Author
Message

Omen ®

Longevity: 8 years 5 months

Posts: 181087

Торрент-статистика

Post 13-Jan-2013 01:24

[Quote]

Друзья Питера / Peter's Friends
Страна: Великобритания
Студия: Channel Four Films, Renaissance Films
Жанр: Комедия, Драма, Мелодрама
Год выпуска: 1992
Продолжительность: 01:37:02
Перевод 1: Профессиональный (многоголосый закадровый) - ТВ5
Перевод 2: Профессиональный (многоголосый закадровый) - "Домашний"
Перевод 3: Авторский (одноголосый закадровый) - А. Михалев
Перевод 4: Авторский (одноголосый закадровый) - Ю. Сербин
Субтитры: Русские
Оригинальная аудиодорожка: английский
Режиссер: Кеннет Брана / Kenneth Branagh
В ролях: Стивен Фрай, Хью Лори, Кеннет Брана, Эмма Tомпсон, Рита Раднер, Имельда Стонтон, Альфонсия Эммануэль, Филлида Лоу, Ричард Браерс, Алекс Скотт (Stephen Fry, Hugh Laurie, Kenneth Branagh, Emma Tompson, Rita Rudner, Imelda Staunton, Alphonsia Emmanuel, Phyllida Law, Richard Briers, Alex Scott)
Описание: После смерти отца Питер Мортон получает в наследство фамильное поместье и приглашает шестерых своих старых друзей по Кэмбриджу отпраздновать вместе Новый год. С того момента, как они сдали выпускные экзамены и бросили университетскую театральную труппу, прошло уже десять лет. За это время их жизнь сильно изменилась, и приглашение старого товарища оказывается для них не самым приятным бременем. Однако у Питера припасен в кармане один козырь, который заставит гостей вспомнить о старой дружбе.
Доп. информация: Автор рипа - FiestaRed. Добавлены четыре русские дорожки. Многоголосый перевод телеканала ТВ5 (Санкт-Петербург) взят из этой раздачи. Многоголосый перевод телеканала "Домашний" - собственная запись. Авторские переводы А. Михалева и Ю. Сербина взяты из раздачи Max Plissken. Так же добавлены русские субтитры, взятые из раздачи Alyss. Большое спасибо всем предоставившим материалы! На протяжении всего фильма присутствует лого телеканала.
Сэмпл
Тип релиза: HDTVRip 720p
Контейнер: MKV
Видео: 1280x688p, 25 fps, x264, 6000 kbps
Аудио 1: Russian - ТВ5 (Dolby AC3, 2 ch) 192 Kbps / 48 000 Hz
Аудио 2: Russian - "Домашний" (Dolby AC3, 2 ch) 192 Kbps / 48 000 Hz
Аудио 3: Russian - Михалев (Dolby AC3, 2 ch) 192 Kbps / 48 000 Hz
Аудио 4: Russian - Сербин (Dolby AC3, 2 ch) 192 Kbps / 48 000 Hz
Аудио 5: English (Dolby AC3, 2 ch) 192 Kbps / 48 000 Hz
Субтитры: Russian

MediaInfo

Уникальный идентификатор : 192524283642387281298909150275365137086 (0x90D6D40ABD12C1E698D46912F59E6ABE)
Полное имя : Peter's.Friends.(1992).HDTVRip.720p.x264.AC3.RUS.ENG.mkv
Формат : Matroska
Версия формата : Version 4 / Version 2
Размер файла : 4,72 Гбайт
Продолжительность : 1 ч. 37 м.
Общий поток : 6962 Кбит/сек
Название фильма : Peter's Friends (1992) HDTVRip 720p
Дата кодирования : UTC 2010-02-22 21:41:31
Программа кодирования : mkvmerge v5.9.0 ('On The Loose') built on Dec 9 2012 15:37:01
Библиотека кодирования : libebml v1.3.0 + libmatroska v1.4.0
Видео
Идентификатор : 1
Формат : AVC
Формат/Информация : Advanced Video Codec
Профиль формата : [email protected]
Параметр CABAC формата : Да
Параметр ReFrames формата : 7 кадров
Идентификатор кодека : V_MPEG4/ISO/AVC
Битрейт : 6000 Кбит/сек
Ширина : 1280 пикселей
Высота : 688 пикселей
Соотношение сторон : 1,85:1
Режим частоты кадров : Переменный
Частота кадров в оригинале : 25,000 кадров/сек
Цветовое пространство : YUV
Субдискретизация насыщенности : 4:2:0
Битовая глубина : 8 бит
Тип развёртки : Прогрессивная
Бит/(Пиксели*Кадры) : 0.273
Библиотека кодирования : x264 core 120 r2164 da19765
Настройки программы : cabac=1 / ref=7 / deblock=1:-1:-1 / analyse=0x3:0x113 / me=umh / subme=8 / psy=1 / psy_rd=1.00:0.00 / mixed_ref=1 / me_range=32 / chroma_me=1 / trellis=2 / 8x8dct=1 / cqm=0 / deadzone=21,11 / fast_pskip=0 / chroma_qp_offset=-2 / threads=6 / sliced_threads=0 / nr=0 / decimate=1 / interlaced=0 / bluray_compat=0 / constrained_intra=0 / bframes=5 / b_pyramid=2 / b_adapt=2 / b_bias=0 / direct=3 / weightb=1 / open_gop=0 / weightp=2 / keyint=250 / keyint_min=24 / scenecut=40 / intra_refresh=0 / rc=2pass / mbtree=0 / bitrate=6000 / ratetol=1.0 / qcomp=0.60 / qpmin=10 / qpmax=51 / qpstep=4 / cplxblur=20.0 / qblur=0.5 / ip_ratio=1.40 / pb_ratio=1.30 / aq=1:1.00
Язык : English
Default : Да
Forced : Нет
Аудио #1
Идентификатор : 2
Формат : AC-3
Формат/Информация : Audio Coding 3
Расширение режима : CM (complete main)
Параметр Endianness формата : Big
Идентификатор кодека : A_AC3
Продолжительность : 1 ч. 37 м.
Вид битрейта : Постоянный
Битрейт : 192 Кбит/сек
Каналы : 2 канала
Расположение каналов : Front: L R
Частота : 48,0 КГц
Битовая глубина : 16 бит
Размер потока : 133 Мбайт (3%)
Заголовок : ТВ5
Язык : Russian
Default : Да
Forced : Нет
Аудио #2
Идентификатор : 3
Формат : AC-3
Формат/Информация : Audio Coding 3
Расширение режима : CM (complete main)
Параметр Endianness формата : Big
Идентификатор кодека : A_AC3
Продолжительность : 1 ч. 37 м.
Вид битрейта : Постоянный
Битрейт : 192 Кбит/сек
Каналы : 2 канала
Расположение каналов : Front: L R
Частота : 48,0 КГц
Битовая глубина : 16 бит
Размер потока : 133 Мбайт (3%)
Заголовок : Домашний
Язык : Russian
Default : Нет
Forced : Нет
Аудио #3
Идентификатор : 4
Формат : AC-3
Формат/Информация : Audio Coding 3
Расширение режима : CM (complete main)
Параметр Endianness формата : Big
Идентификатор кодека : A_AC3
Продолжительность : 1 ч. 37 м.
Вид битрейта : Постоянный
Битрейт : 192 Кбит/сек
Каналы : 2 канала
Расположение каналов : Front: L R
Частота : 48,0 КГц
Битовая глубина : 16 бит
Размер потока : 133 Мбайт (3%)
Заголовок : Михалев
Язык : Russian
Default : Нет
Forced : Нет
Аудио #4
Идентификатор : 5
Формат : AC-3
Формат/Информация : Audio Coding 3
Расширение режима : CM (complete main)
Параметр Endianness формата : Big
Идентификатор кодека : A_AC3
Продолжительность : 1 ч. 37 м.
Вид битрейта : Постоянный
Битрейт : 192 Кбит/сек
Каналы : 2 канала
Расположение каналов : Front: L R
Частота : 48,0 КГц
Битовая глубина : 16 бит
Размер потока : 133 Мбайт (3%)
Заголовок : Сербин
Язык : Russian
Default : Нет
Forced : Нет
Аудио #5
Идентификатор : 6
Формат : AC-3
Формат/Информация : Audio Coding 3
Расширение режима : CM (complete main)
Параметр Endianness формата : Big
Идентификатор кодека : A_AC3
Продолжительность : 1 ч. 37 м.
Вид битрейта : Постоянный
Битрейт : 192 Кбит/сек
Каналы : 2 канала
Расположение каналов : Front: L R
Частота : 48,0 КГц
Битовая глубина : 16 бит
Размер потока : 133 Мбайт (3%)
Заголовок : Original
Язык : English
Default : Нет
Forced : Нет
Текст
Идентификатор : 7
Формат : UTF-8
Идентификатор кодека : S_TEXT/UTF8
Идентификатор кодека/Информация : UTF-8 Plain Text
Язык : Russian
Default : Нет
Forced : Нет

Скриншоты

Other forum [Profile] [PM]
Similar theme
Forum Topic Author Torrent Replies Last Post
./templates/default/images/folder_dl.gif Обучающее видео Михаил Шестов | Говорим по английски как Друзья / SupremeLearning Friends (2014) HDRip Anonymous
0 | 1

0 | 10901

26

2017-06-27 11:45
Anonymous Latest
Display posts from previous:    
Reply to topic

The time now is: Today 08:52

All times are GMT + 3 Hours



You cannot post new topics in this forum
You cannot reply to topics in this forum
You cannot edit your posts in this forum
You cannot delete your posts in this forum
You cannot vote in polls in this forum
You cannot attach files in this forum
You cannot download files in this forum