Today is a free download without charge Download

Доктор / Doctor, The (Рэнда Хэйнс / Randa Haines) [1991, США, Драма, BDRip 720p] AVO(Михалёв) + MVO + Original Eng

Reply to topic
 
Author
Message

Omen ®

Longevity: 8 years 5 months

Posts: 181087

Торрент-статистика

Post 13-Jan-2013 01:24

[Quote]

Доктор / Doctor, The
Страна: США
Студия: Touchstone Pictures & Silver Screen Partners IV
Жанр: Драма
Год выпуска: 1991
Продолжительность: 02:02:58
Авторский перевод АЛЕКСЕЯ МИХАЛЁВА
Перевод 2: Профессиональный (многоголосый закадровый)
Cубтитры: нет
Оригинальная аудиодорожка: английский
Режиссер: Рэнда Хэйнс / Randa Haines
В ролях: Уильям Херт /William Hurt/, Кристина Лахти /Christine Lahti/, Мэнди Пэтинкин /Mandy Patinkin/, Адам Аркин /Adam Arkin/, Чарли Корсмо /Charlie Corsmo/
Описание: Вторая совместная работа Херта и режиссера Хэйнз после большого успеха "Детей меньшого бога". Это история о хирурге, который на себе испытал, что значит быть обыкновенным пациентом. Картина одиноково тронула сердца критиков и зрителей. (Иванов М.)
--------------------------------------------------
Оператор: Джон Сил /John Seale/
Сценарист: Роберт Кэсуэлл /Robert Caswell/
Продюсер: Лора Зискин /Laura Ziskin/
Переводчик: Алексей Михалёв
Монтажер: Лиза Фрухтмэн /Lisa Fruchtman/, Брюс Грин /Bruce Green/
Композитор: Майкл Конвертино /Michael Convertino/
Художник: Кен Адам /Ken Adam/
--------------------------------------------------
КИНОПОИСК. RU
РЕЙТИНГ 7.800 оценки: 39
--------------------------------------------------
Доп. информация: BDRip от protoyu. Перевод Михалёва с этой раздачи - DVD-Rip , MVO отсюда DVD-Rip
.
СЭМПЛ
Тип релиза: BDRip 720p
Контейнер: MKV
Видео: 1280x688; 23,976 fps; ~ 6119 Kbps; 0.290 Bits/Pixel
Аудио 1: Russian - 48 kHz, AC3, 2/0 Front: L R, ~ 192 kbps - Алексей Михалёв
Аудио 2: Russian - 48 kHz, AC3, 2/0 Front: L R, ~ 192 kbps - MVO
Аудио 3: English - 48 kHz, DTS, 2/0 Front: L R, ~ 1510 kbps- Original

MediaInfo

General
Complete name : F:\EXCLUZIVE=19\ДОКТОР [Doctor, The][1991]\DOCTOR, THE [Randa Haines]-1991\The.Doctor.1991.720p.BluRay.x264-UNTOUCHABLES.mkv
Format : Matroska
File size : 6.88 GiB
Duration : 2h 2mn
Overall bit rate : 8 012 Kbps
Encoded date : UTC 2013-01-11 21:45:28
Writing application : mkvmerge v3.3.0 ('Language') built on Mar 24 2010 14:59:24
Writing library : libebml v0.8.0 + libmatroska v0.9.0
Video
ID : 1
Format : AVC
Format/Info : Advanced Video Codec
Format profile : [email protected]
Format settings, CABAC : Yes
Format settings, ReFrames : 5 frames
Muxing mode : Container [email protected]
Codec ID : V_MPEG4/ISO/AVC
Duration : 2h 2mn
Bit rate : 6 119 Kbps
Width : 1 280 pixels
Height : 688 pixels
Display aspect ratio : 1.860
Frame rate : 23.976 fps
Color space : YUV
Chroma subsampling : 4:2:0
Bit depth : 8 bits
Scan type : Progressive
Bits/(Pixel*Frame) : 0.290
Stream size : 5.12 GiB (74%)
Title : Doctor, The - Randa Haines 1991
Writing library : x264 core 128 r2216 198a7ea
Encoding settings : cabac=1 / ref=5 / deblock=1:0:0 / analyse=0x3:0x133 / me=umh / subme=7 / psy=1 / psy_rd=1.00:0.00 / mixed_ref=1 / me_range=16 / chroma_me=1 / trellis=1 / 8x8dct=1 / cqm=0 / deadzone=21,11 / fast_pskip=0 / chroma_qp_offset=-2 / threads=12 / lookahead_threads=2 / sliced_threads=0 / nr=0 / decimate=1 / interlaced=0 / bluray_compat=0 / constrained_intra=0 / bframes=3 / b_pyramid=2 / b_adapt=2 / b_bias=0 / direct=1 / weightb=1 / open_gop=0 / weightp=2 / keyint=250 / keyint_min=23 / scenecut=40 / intra_refresh=0 / rc_lookahead=40 / rc=2pass / mbtree=1 / bitrate=6119 / ratetol=1.0 / qcomp=0.60 / qpmin=0 / qpmax=69 / qpstep=4 / cplxblur=20.0 / qblur=0.5 / ip_ratio=1.40 / aq=1:1.00
Language : English
Audio #1
ID : 2
Format : AC-3
Format/Info : Audio Coding 3
Mode extension : CM (complete main)
Codec ID : A_AC3
Duration : 2h 2mn
Bit rate mode : Constant
Bit rate : 192 Kbps
Channel(s) : 2 channels
Channel positions : Front: L R
Sampling rate : 48.0 KHz
Stream size : 169 MiB (2%)
Title : AVO - Mihalev - AC3 192 kbs
Language : Russian
Audio #2
ID : 3
Format : AC-3
Format/Info : Audio Coding 3
Mode extension : CM (complete main)
Codec ID : A_AC3
Duration : 2h 2mn
Bit rate mode : Constant
Bit rate : 192 Kbps
Channel(s) : 2 channels
Channel positions : Front: L R
Sampling rate : 48.0 KHz
Stream size : 169 MiB (2%)
Title : MVO - AC3 192 kbs
Language : Russian
Audio #3
ID : 4
Format : DTS
Format/Info : Digital Theater Systems
Codec ID : A_DTS
Duration : 2h 2mn
Bit rate mode : Constant
Bit rate : 1 510 Kbps
Channel(s) : 2 channels
Channel positions : Front: L R
Sampling rate : 48.0 KHz
Bit depth : 24 bits
Video delay : 11ms
Stream size : 1.30 GiB (19%)
Title : Original - DTS - 1510 kbs
Language : English

Скриншоты

, ,
, ,
, ,
, ,
Other forum [Profile] [PM]
Similar theme
Forum Topic Author Torrent Replies Last Post
./templates/default/images/folder_dl.gif Фантастика, фэнтези, ужасы, мистика Стивен Кинг | Доктор Сон (2013) [fb2] Omen
1 | 0

0 | 1489

0

2014-05-12 19:56
Omen Latest
./templates/default/images/folder_dl.gif Медицина и Здоровье Александр Мясников | Энциклопедия доктора Мясникова о самом главном [3 тома] (2015-2017) [FB2] }{@R0N
1 | 0

0 | 8940

30

2017-11-20 21:19
}{@R0N Latest
Display posts from previous:    
Reply to topic

The time now is: Today 12:51

All times are GMT + 3 Hours



You cannot post new topics in this forum
You cannot reply to topics in this forum
You cannot edit your posts in this forum
You cannot delete your posts in this forum
You cannot vote in polls in this forum
You cannot attach files in this forum
You cannot download files in this forum