Today is a free download without charge Download

Один дома / Home Alone (Крис Коламбyс / Chris Columbus) [1990, США, комедия, приключения, семейный, BDRip 720p] Dub + MVO + AVO + Sub Rus + Original Eng

Reply to topic
 
Author
Message

Omen ®

Longevity: 8 years 5 months

Posts: 181087

Торрент-статистика

Post 13-Jan-2013 01:24

[Quote]

Один дома / Home Alone- Страна: США
Студия: 20th Century Fox Film Corporation / Hughes Entertainment
Жанр: комедия, приключения, семейный
Год выпуска: 1990
Продолжительность: 01:42:54-Перевод 1: Профессиональный (дублированный)
Перевод 2: Профессиональный (многоголосый закадровый)
Перевод 3: Профессиональный (многоголосый закадровый) Family Fan Edition
Перевод 4: Профессиональный (многоголосый закадровый) ОРТ
Перевод 5: Авторский (одноголосый закадровый) А.Михалев
Перевод 6: Авторский (одноголосый закадровый) В.Дохалов
Cубтитры: русские, украинские (на непереведенные моменты), английские
Оригинальная аудиодорожка: английский-Режиссер: Крис Коламбyс / Chris Columbus
В ролях: Маколей Калкин (Macaulay Culkin), Джо Пеши (Joe Pesci), Дэниел Стерн (Daniel Stern), Кэтрин О’Хара (Catherine O'Hara), Джон Хёрд (John Heard), Робертс Блоссом (Roberts Blossom), Джерри Бэммен (Gerry Bamman), Девин Рэтрей (Devin Ratray)-Описание: Американское семейство отправляется из Чикаго в Европу, но в спешке сборов бестолковые родители забывают дома… одного из своих детей. Юное создание, однако, не теряется и демонстрирует чудеса изобретательности. И когда в дом залезают грабители, им приходится не раз пожалеть о встрече с милым крошкой.- -Тип релиза: BDRip 720p
Контейнер: MKV-Видео: AVC; 1280x688; 1,860; 23,976 fps; 5985 kbps
Аудио 1: Russian (AC3, 2 ch, 192 kbps, 48,0 КГц) Дублированный
Аудио 2: Russian (AC3, 6 ch, 384 kbps, 48,0 КГц) Многоголосый закадровый
Аудио 3: Russian (AC3, 2 ch, 192 kbps, 48,0 КГц) Многоголосый закадровый, Family Fan Edition
Аудио 4: Russian (AC3, 2 ch, 192 kbps, 48,0 КГц) Многоголосый закадровый, ОРТ
Аудио 5: Ukrainian (AC3, 2 ch, 192 kbps, 48,0 КГц) Многоголосый закадровый, Новый канал
Аудио 6: Russian (DTS, 6 ch, 1510 kbps, 48,0 КГц) Одноголосый закадровый, А.Михалев
Аудио 7: Russian (AC3, 2 ch, 192 kbps, 48,0 КГц) Одноголосый закадровый, В.Дохалов
Аудио 8: English (DTS, 6 ch, 1510 kbps, 48,0 КГц)
Аудио 9: English (OGG, 2 ch, 64 kbps, 48,0 КГц) Commentary by Director Chris Colombus and Macaulay Culkin
Формат субтитров: softsub (SRT)

MediaInfo

Общее
Уникальный идентификатор : 240470717018644783338480341947401247949 (0xB4E8F9B81A845E69AD7B645E4AFA1CCD)
Полное имя : F:Home.Alone.1990.720p.BluRay.7xRus.2xEng.mkv
Формат : Matroska
Размер файла : 7,49 Гбайт
Продолжительность : 1 ч. 42 м.
Общий поток : 10,4 Мбит/сек
Дата кодирования : UTC 2013-01-12 16:09:05
Программа кодирования : mkvmerge v5.8.0 ('No Sleep / Pillow') built on Sep 2 2012 15:37:04
Библиотека кодирования : libebml v1.2.3 + libmatroska v1.3.0
Видео
Идентификатор : 1
Формат : AVC
Формат/Информация : Advanced Video Codec
Профиль формата : [email protected]
Параметр CABAC формата : Да
Параметр ReFrames формата : 8 кадров
Идентификатор кодека : V_MPEG4/ISO/AVC
Продолжительность : 1 ч. 42 м.
Битрейт : 5985 Кбит/сек
Ширина : 1280 пикс.
Высота : 688 пикс.
Соотношение сторон : 1,860
Частота кадров : 23,976 кадр/сек
Цветовое пространство : YUV
Подвыборка цветности : 4:2:0
Битовая глубина : 8 бит
Тип развёртки : Прогрессивная
Бит/(Пиксели*Кадры) : 0.283
Размер потока : 4,16 Гбайт (56%)
Заголовок : Release for HDCLUB
Библиотека кодирования : x264 core 65 r1066M 045ae40
Настройки программы : cabac=1 / ref=8 / deblock=1:-3:-3 / analyse=0x3:0x133 / me=umh / subme=9 / psy_rd=1.0:0.0 / mixed_ref=1 / me_range=16 / chroma_me=1 / trellis=2 / 8x8dct=1 / cqm=0 / deadzone=21,11 / chroma_qp_offset=-2 / threads=3 / nr=0 / decimate=1 / mbaff=0 / bframes=5 / b_pyramid=1 / b_adapt=2 / b_bias=0 / direct=3 / wpredb=1 / keyint=250 / keyint_min=25 / scenecut=40(pre) / rc=2pass / bitrate=5985 / ratetol=1.0 / qcomp=0.60 / qpmin=10 / qpmax=51 / qpstep=4 / cplxblur=20.0 / qblur=0.5 / ip_ratio=1.40 / pb_ratio=1.30 / aq=1:1.00
Язык : English
Аудио #1
Идентификатор : 2
Формат : AC-3
Формат/Информация : Audio Coding 3
Расширение режима : CM (complete main)
Идентификатор кодека : A_AC3
Продолжительность : 1 ч. 42 м.
Вид битрейта : Постоянный
Битрейт : 192 Кбит/сек
Каналы : 2 канала
Расположение каналов : Front: L R
Частота : 48,0 КГц
Битовая глубина : 16 бит
Метод сжатия : С потерями
Размер потока : 141 Мбайт (2%)
Заголовок : дублированный
Язык : Russian
Аудио #2
Идентификатор : 3
Формат : AC-3
Формат/Информация : Audio Coding 3
Расширение режима : CM (complete main)
Идентификатор кодека : A_AC3
Продолжительность : 1 ч. 42 м.
Вид битрейта : Постоянный
Битрейт : 384 Кбит/сек
Каналы : 6 каналов
Расположение каналов : Front: L C R, Side: L R, LFE
Частота : 48,0 КГц
Битовая глубина : 16 бит
Метод сжатия : С потерями
Размер потока : 283 Мбайт (4%)
Заголовок : AC3 5.1 @ 384 kbps - Многоголосый закадровый
Язык : Russian
Аудио #3
Идентификатор : 4
Формат : AC-3
Формат/Информация : Audio Coding 3
Расширение режима : CM (complete main)
Идентификатор кодека : A_AC3
Продолжительность : 1 ч. 42 м.
Вид битрейта : Постоянный
Битрейт : 192 Кбит/сек
Каналы : 2 канала
Расположение каналов : Front: L R
Частота : 48,0 КГц
Битовая глубина : 16 бит
Метод сжатия : С потерями
Размер потока : 141 Мбайт (2%)
Заголовок : AC3 2.0 @ 192 kbps - Многоголосый закадровый (Family Fun Edition)
Язык : Russian
Аудио #4
Идентификатор : 5
Формат : AC-3
Формат/Информация : Audio Coding 3
Расширение режима : CM (complete main)
Идентификатор кодека : A_AC3
Продолжительность : 1 ч. 42 м.
Вид битрейта : Постоянный
Битрейт : 192 Кбит/сек
Каналы : 2 канала
Расположение каналов : Front: L R
Частота : 48,0 КГц
Битовая глубина : 16 бит
Метод сжатия : С потерями
Размер потока : 141 Мбайт (2%)
Заголовок : AC3 2.0 @ 192 kbps - Многоголосый закадровый (Телеканал ОРТ)
Язык : Russian
Аудио #5
Идентификатор : 6
Формат : AC-3
Формат/Информация : Audio Coding 3
Расширение режима : CM (complete main)
Идентификатор кодека : A_AC3
Продолжительность : 1 ч. 42 м.
Вид битрейта : Постоянный
Битрейт : 192 Кбит/сек
Каналы : 2 канала
Расположение каналов : Front: L R
Частота : 48,0 КГц
Битовая глубина : 16 бит
Метод сжатия : С потерями
Размер потока : 141 Мбайт (2%)
Заголовок : AC3 2.0 @ 192 kbps - Многоголосый закадровый - (Новый канал)
Язык : Ukrainian
Аудио #6
Идентификатор : 7
Формат : DTS
Формат/Информация : Digital Theater Systems
Идентификатор кодека : A_DTS
Продолжительность : 1 ч. 42 м.
Вид битрейта : Постоянный
Битрейт : 1510 Кбит/сек
Каналы : 6 каналов
Расположение каналов : Front: L C R, Side: L R, LFE
Частота : 48,0 КГц
Битовая глубина : 24 бит
Метод сжатия : С потерями
Размер потока : 1,09 Гбайт (14%)
Заголовок : DTS 5.1 @ 1536 kbps - Одноголосый закадровый (А.Михалев)
Язык : Russian
Аудио #7
Идентификатор : 8
Формат : AC-3
Формат/Информация : Audio Coding 3
Расширение режима : CM (complete main)
Идентификатор кодека : A_AC3
Продолжительность : 1 ч. 42 м.
Вид битрейта : Постоянный
Битрейт : 192 Кбит/сек
Каналы : 2 канала
Расположение каналов : Front: L R
Частота : 48,0 КГц
Битовая глубина : 16 бит
Метод сжатия : С потерями
Размер потока : 141 Мбайт (2%)
Заголовок : AC3 2.0 @ 192 kbps - Одноголосый закадровый (В.Дохалов)
Язык : Russian
Аудио #8
Идентификатор : 9
Формат : DTS
Формат/Информация : Digital Theater Systems
Идентификатор кодека : A_DTS
Продолжительность : 1 ч. 42 м.
Вид битрейта : Постоянный
Битрейт : 1510 Кбит/сек
Каналы : 6 каналов
Расположение каналов : Front: L C R, Side: L R, LFE
Частота : 48,0 КГц
Битовая глубина : 24 бит
Метод сжатия : С потерями
Размер потока : 1,09 Гбайт (14%)
Заголовок : DTS 5.1 @ 1536 kbps
Язык : English
Аудио #9
Идентификатор : 10
Формат : Vorbis
Параметр Floor формата : 1
Идентификатор кодека : A_VORBIS
Продолжительность : 1 ч. 42 м.
Битрейт : 64,0 Кбит/сек
Каналы : 2 канала
Частота : 48,0 КГц
Метод сжатия : С потерями
Размер потока : 47,1 Мбайт (1%)
Заголовок : OGG 2.0 @ 64 kbps - Комментарии
Библиотека кодирования : libVorbis 1.2 (UTC 2007-06-22)
Язык : English
Текст #1
Идентификатор : 11
Формат : UTF-8
Идентификатор кодека : S_TEXT/UTF8
Идентификатор кодека/Информация : UTF-8 Plain Text
Язык : Russian
Текст #2
Идентификатор : 12
Формат : UTF-8
Идентификатор кодека : S_TEXT/UTF8
Идентификатор кодека/Информация : UTF-8 Plain Text
Язык : Russian
Текст #3
Идентификатор : 13
Формат : UTF-8
Идентификатор кодека : S_TEXT/UTF8
Идентификатор кодека/Информация : UTF-8 Plain Text
Язык : Ukrainian
Текст #4
Идентификатор : 14
Формат : UTF-8
Идентификатор кодека : S_TEXT/UTF8
Идентификатор кодека/Информация : UTF-8 Plain Text
Язык : English
Меню
00:00:00.000 : en:Begin
00:03:47.060 : en:Chapter 2
00:05:46.680 : en:Chapter 3
00:08:49.279 : en:Chapter 4
00:11:28.730 : en:Chapter 5
00:13:43.239 : en:Chapter 6
00:19:27.458 : en:Chapter 7
00:25:08.173 : en:Chapter 8
00:31:16.041 : en:Chapter 9
00:35:56.654 : en:Chapter 10
00:41:09.550 : en:Chapter 11
00:51:22.663 : en:Chapter 12
00:57:38.580 : en:Chapter 13
01:03:27.637 : en:Chapter 14
01:06:33.656 : en:Chapter 15
01:13:43.836 : en:Chapter 16
01:15:13.217 : en:Chapter 17
01:19:27.054 : en:Chapter 18
01:22:51.341 : en:Chapter 19
01:26:00.071 : en:Chapter 20
01:28:45.070 : en:Chapter 21
01:33:32.231 : en:Chapter 22
01:37:58.289 : en:Chapter 23
01:39:06.065 : en:Chapter 24
01:42:54.126 : en:Chapter 25

Скриншоты

Other forum [Profile] [PM]
Display posts from previous:    
Reply to topic

The time now is: Today 23:35

All times are GMT + 3 Hours



You cannot post new topics in this forum
You cannot reply to topics in this forum
You cannot edit your posts in this forum
You cannot delete your posts in this forum
You cannot vote in polls in this forum
You cannot attach files in this forum
You cannot download files in this forum