Today is a free download without charge Download

Баллада о бомбере / Сезон: 1 Серии: 8 из 8 (Виталий Воробьев) [2011, военный, DVDRip]

Reply to topic
 
Author
Message

Vildanoff ®

Gender:

Longevity: 11 years

Posts: 81

Location: г. Уфа

Торрент-статистика

Post 27-Apr-2011 20:57

[Quote]

-Баллада о бомбере -Год выпуска: 2011
Страна: Россия, Украина
Студия: Film.UA, Шпиль
Жанр: военный
Российская премьера: 25 апреля 2011
Дата выхода DVD: 28 апреля 2011, «Lizard Cinema Trade»
Продолжительность: ~ 50 мин. серия
Перевод: Оригинал [Лицензия]
Cубтитры: нет
Оригинальная аудиодорожка: русский-Режиссёр: Виталий Воробьев-В ролях: Екатерина Астахова, Никита Ефремов, Александр Давыдов (II), Виктория Толстоганова, Нина Усатова, Владимир Ильин, Борис Каморзин, Тимофей Трибунцев, Егор Баринов, Владислав Абашин, Юрий Гурьев, Андрей Гусев, Евгений Ефремов, Сергей Калантай, Алексей Шемес-Описание: Во время Второй мировой войны на территории, оккупированной немцами, разбивается советский самолет, но летевшие в нем на задание летчик Гривцов и его возлюбленная радистка Катя чудом спасаются. Удалось выжить и штурману Линько. Каждому из них теперь придется найти свой путь, чтобы выполнить боевое задание, вернуться к своим, и выжить…- -Релиз группы: --Качество: DVDRip
Формат: AVI
Видео кодек: XviD
Аудио кодек: AC3
Видео: 720x400 (1.80:1), 25 fps, XviD MPEG-4 ~1481 kbps avg, 0.20 bit/pixel
Аудио: 48 kHz, AC3 Dolby Digital, 3/2 (L,C,R,l,r) + LFE ch, ~448 kbps--

AVIInfo

File: Ballada.o.bombere.2011.O.DVDRip.1.ELEKTRI4KA.avi
Filesize: 700.09 Mb ( 734 097 408 bytes )
Play length: 00:50:27.719 (75693 frames)
Subtitles: Not Present
Video: 720x400 (1.80:1), 25 fps, XviD MPEG-4 ~1481 kbps avg, 0.20 bit/pixel
Audio: 48 kHz, AC3 Dolby Digital, 3/2 (L,C,R,l,r) + LFE ch, ~448 kbps

MediaInfo

Общее
Полное имя : H:\Новинки 2011\Ballada.o.bombere.2011.O.DVDRip\Ballada.o.bombere.2011.O.DVDRip.1.ELEKTRI4KA.avi
Формат : AVI
Формат/Информация : Audio Video Interleave
Размер файла : 700 Мбайт
Продолжительность : 50 м.
Общий поток : 1940 Кбит/сек
Программа кодирования : VirtualDubMod 1.5.4.1 (build 2178/release)
Библиотека кодирования : VirtualDubMod build 2178/release
Видео
Идентификатор : 0
Формат : MPEG-4 Visual
Профиль формата : Advanced [email protected]
Параметр BVOP формата : 2
Параметр QPel формата : Нет
Параметр GMC формата : Без точки перехода
Параметр матрицы формата : Выборочная
Идентификатор кодека : XVID
Идентификатор кодека/Подсказка : XviD
Продолжительность : 50 м.
Битрейт : 1482 Кбит/сек
Ширина : 720 пикс.
Высота : 400 пикс.
Соотношение сторон : 16:9
Частота кадров : 25,000 кадр/сек
Цветовое пространство : YUV
Подвыборка цветности : 4:2:0
Битовая глубина : 8 бит
Тип развёртки : Прогрессивная
Метод сжатия : С потерями
Бит/(Пиксели*Кадры) : 0.206
Размер потока : 535 Мбайт (76%)
Библиотека кодирования : XviD 58
Аудио
Идентификатор : 1
Формат : AC-3
Формат/Информация : Audio Coding 3
Расширение режима : CM (complete main)
Идентификатор кодека : 2000
Продолжительность : 50 м.
Вид битрейта : Постоянный
Битрейт : 448 Кбит/сек
Канал(ы) : 6 канала(ов)
Расположение каналов : Front: L C R, Side: L R, LFE
Частота : 48,0 КГц
Битовая глубина : 16 бит
Метод сжатия : С потерями
Размер потока : 162 Мбайт (23%)
Выравнивание : Разделение по промежуткам
Продолжительность промежутка : 40 мс. (1,00 видеокадр)
Время предзагрузки промежутка : 500 ms

Скриншоты сериала

       
--

_________________
Other forum [Profile] [PM]
Display posts from previous:    
Reply to topic

The time now is: Today 10:12

All times are GMT + 3 Hours



You cannot post new topics in this forum
You cannot reply to topics in this forum
You cannot edit your posts in this forum
You cannot delete your posts in this forum
You cannot vote in polls in this forum
You cannot attach files in this forum
You cannot download files in this forum