Сегодня идет свободное скачивание без начисления Download

На границе (1939) TVRip

Ответить на тему
 
Автор
Сообщение

Omen ®

Стаж: 5 лет 10 месяцев

Сообщений: 184329

Торрент-статистика

Пост 12-Янв-2013 23:24

[Цитировать]

-На границе (1939) TVRip- Русское название: На границе
Год выпуска: 1939
Жанр: Военно-патриотический
Описание фильма:
Советский Дальний Восток и Маньчжоу-Го разделяет пограничная река, по одну сторону которой в небольшой маньчжурской деревне обосновались русские белогвардейцы. На противоположном берегу живет советская семья Власовых, которая зорко следит за передвижением диверсантов. Желая уничтожить Власовых, в их дом проникают белогвардейцы. На помощь приходит отpяд бойцов во главе с капитаном погранзаставы Тарасовым. Начинается долгий изнурительный бой.
Режиссер: Александр Иванов
Актеры: Николай Крючков, Елена Тяпкина, Зоя Федорова, Степан Крылов, Эраст Гарин, Юрий Лавров, Ирина Зарубина
Продолжительность: 01:35:45

Видеокодек: DivX 5
Битрейт видео: ~1909 kb/s
Размер кадра: 640 x 480
Качество видео: TVRip
Аудиокодек: MP3, 2 ch
Битрейт аудио: 128 kb/s

MediaInfo

Общее
Полное имя : На границе.1939.TVRip.avi
Формат : AVI
Формат/Информация : Audio Video Interleave
Размер файла : 1,37 Гбайт
Продолжительность : 1 ч. 35 м.
Общий поток : 2045 Кбит/сек
Программа кодирования : VirtualDubMod 1.5.4.1 (build 2178/release)
Библиотека кодирования : VirtualDubMod build 2178/release
Видео
Идентификатор : 0
Формат : MPEG-4 Visual
Параметр BVOP формата : 1
Параметр QPel формата : Нет
Параметр GMC формата : Без точки перехода
Параметр матрицы формата : Default (H.263)
Режим смешивания : Сжатый битовый поток
Идентификатор кодека : DX50
Идентификатор кодека/Подсказка : DivX 5
Продолжительность : 1 ч. 35 м.
Битрейт : 1909 Кбит/сек
Ширина : 640 пикселей
Высота : 480 пикселей
Соотношение сторон : 4:3
Частота кадров : 25,000 кадров/сек
Цветовое пространство : YUV
Субдискретизация насыщенности : 4:2:0
Битовая глубина : 8 бит
Тип развёртки : Прогрессивная
Метод сжатия : С потерями
Бит/(Пиксели*Кадры) : 0.249
Размер потока : 1,28 Гбайт (93%)
Библиотека кодирования : DivX 5.2.1 (WaffleDay) (UTC 2004-09-08)
Аудио
Идентификатор : 1
Формат : MPEG Audio
Версия формата : Version 1
Профиль формата : Layer 3
Режим : Joint stereo
Расширение режима : MS Stereo
Идентификатор кодека : 55
Идентификатор кодека/Подсказка : MP3
Продолжительность : 1 ч. 35 м.
Вид битрейта : Постоянный
Битрейт : 128 Кбит/сек
Каналы : 2 канала
Частота : 48,0 КГц
Метод сжатия : С потерями
Размер потока : 87,7 Мбайт (6%)
Выравнивание : Соединение по промежуткам
Продолжительность промежутка : 80 мс. (2,00 видеокадра)
Время предзагрузки промежутка : 504 мс.
Библиотека кодирования : LAME3.97
Настройки программы : -m j -V 4 -q 2 -lowpass 17 -b 128
Язык : Russian
Скриншоты:          Время раздачи: С 13:00 до 21:00 (до 5 скачавших)Приятного просмотра!
Вне форума [Профиль] [ЛС]
Показать сообщения:    
Ответить на тему

Текущее время: Сегодня 02:56

Часовой пояс: GMT + 3



Вы не можете начинать темы
Вы не можете отвечать на сообщения
Вы не можете редактировать свои сообщения
Вы не можете удалять свои сообщения
Вы не можете голосовать в опросах
Вы не можете прикреплять файлы к сообщениям
Вы не можете скачивать файлы