Today is a free download without charge Download

UMA2RMAN Необыкновенный концерт в клубе МАО, Москва, ноябрь 2011 [2011, Pop, HDTV 1080i]

Reply to topic
 
Author
Message

Omen ®

Longevity: 8 years 3 months

Posts: 181087

Торрент-статистика

Post 12-Jan-2013 17:08

[Quote]

UMA2RMAN Необыкновенный концерт в клубе МАО, Москва, ноябрь 2011
Жанр: Pop
Продолжительность: 01:02:48
Год выпуска: 2011
Описание: "Кварти́рник — концерт, проводящийся в обычной квартире, в домашних условиях. Как правило, на нём выступает небольшое количество музыкантов с акустическими инструментами.
Весной 2010 года группа Uma2rman провели концерт - нестандартный для московской публики, привыкшей к помпезным залам и клубным площадкам. Люди, пришедшие к братьям Кристовским на квартирник в ДК им. Зуева неожиданно для себя заново открывали забытую прелесть посиделок на кухне и задушевных бесед. В этот вечер границы между сценой и зрительным залом не чувствовалось: как-будто все пришли в гости к близкому другу. Устроить подобный концерт было своеобразным экспериментом группы, и можно точно сказать, что он удался - группа Uma2rmaH со своим квартирником попали в точку!
Доп. информация: Треклист:
01 В этом городе все сумасшедшие
02 Ты вернёшься
03 Не поминайте лихом
04 Русский колорит (feat. Михаил Калгин)
05 Михаил Калгин - Одуванчики
06 Сольная песня Сергея Крестовского, точно не знаю, но скорее всего "Сон"
07 Александр А. Ревва - Царевна - несмеяна
08 Александр А. Ревва - Луч солнца золотого
09 Не позвонишь (feat. Михаил Козырев)
10 Куда приводят мечты
11 В городе дождь
12 Оля из сети
13 Молодой моряк
Качество: HDTV 1080i
Контейнер: M2TS
Видео кодек: AVC
Аудио кодек: AAC
Видео: AVC, 1920х1080, 16:9, 5001 Кбит/сек, 25 fps
Аудио: MPEG Audio, 192 Кбит/сек, 48 КГц, 2 канала

Отчёт MediaInfo / BDInfo

ОбщееИдентификатор : 1 (0x1)Полное имя : UMA2RMAH_MAO_2011 (Edited).m2tsФормат : BDAVФормат/Информация : Blu-ray VideoРазмер файла : 2,38 ГбайтПродолжительность : 1 ч. 2 м.Режим общего битрейта : ПеременныйОбщий поток : 5416 Кбит/сек
ВидеоИдентификатор : 4113 (0x1011)Идентификатор меню : 1 (0x1)Формат : AVCФормат/Информация : Advanced Video CodecПрофиль формата : [email protected]Параметр CABAC формата : ДаПараметр ReFrames формата : 4 кадраПараметр GOP формата : M=4, N=32Идентификатор кодека : 27Продолжительность : 1 ч. 2 м.Битрейт : 5001 Кбит/секШирина : 1920 пикселейВысота : 1080 пикселейСоотношение сторон : 16:9Частота кадров : 25,000 кадров/секСтандарт вещания : PALЦветовое пространство : YUVСубдискретизация насыщенности : 4:2:0Битовая глубина : 8 битТип развёртки : ЧересстрочнаяПорядок развёртки : Верхнее поле первоеБит/(Пиксели*Кадры) : 0.096Размер потока : 2,19 Гбайт (92%)Основные цвета : BT.709Характеристики трансфера : BT.709Коэффициенты матрицы : BT.709
АудиоИдентификатор : 4352 (0x1100)Идентификатор меню : 1 (0x1)Формат : MPEG AudioВерсия формата : Version 1Профиль формата : Layer 2Идентификатор кодека : 4Продолжительность : 1 ч. 2 м.Вид битрейта : ПостоянныйБитрейт : 192 Кбит/секКаналы : 2 каналаЧастота : 48,0 КГцМетод сжатия : С потерямиЗадержка видео : 32 мс.Размер потока : 86,3 Мбайт (4%)Язык : stdЯзык, дополнительно : Clean effects

Скриншоты

Other forum [Profile] [PM]
Display posts from previous:    
Reply to topic

The time now is: Today 13:05

All times are GMT + 3 Hours



You cannot post new topics in this forum
You cannot reply to topics in this forum
You cannot edit your posts in this forum
You cannot delete your posts in this forum
You cannot vote in polls in this forum
You cannot attach files in this forum
You cannot download files in this forum