Today is a free download without charge Download

М.У.Р / Третий фронт (1-20 серии из 20) (2012) [H.264] DVDRip

Reply to topic
 
Author
Message

Omen ®

Longevity: 9 years

Posts: 181086

Торрент-статистика

Post 12-Jan-2013 14:08

[Quote]

-М.У.Р / Третий фронт (1-20 серии из 20) (2012) [H.264] DVDRip- Русское название: М.У.Р / Третий фронт
Год выпуска: 2012
Страна: Россия / "Дед Мороз", кинокомпания "Квадрат"
Жанр: криминал, военный-
Премьера:
5 марта 2012 (канал Израиль+), 16 апреля 2012 (Россия-1)
Режиссер: Эльёр Ишмухамедов
Актеры: Михаил Ефремов, Александр Домогаров, Марина Александрова, Иван Стебунов, Игорь Лифанов, Владимир Гостюхин, Тамара Акулова, Михаил Васьков, Елизавета Боярская, Александр Яцко, Игорь Скляр, Юрий Цурило, Михаил Асанкин, Кирилл Болтаев, Елена Морозова, Николай Ефремов, Анна Багмет, Сергей Петров, Юрий Тарасов, Евгений Зотов, Виктор Косых, Людмила Аринина, Антон Багмет, Елена Баркевич...
Описание фильма: События разворачиваются в Москве в годы войны. Главный герой Иван Данилов, начальник Отдела по борьбе с бандитизмом Московского уголовного розыска, распутывает одно дело за другим, предотвращает спланированные немцами диверсии в прифронтовой столице и ловит бандитов. В центре истории - противостояние начальника отдела МУРа (Михаил Ефремов) с главарём бандитов (Александр Домогаров)......./ По произведениям Эдуарда Хруцкого из цикла "ОББ"-Продолжительность: серия: ~ 00:42
Качество видео: DVDRip-AVC
Формат: MKV
Видеокодек: MPEG-4 AVC
Битрейт видео: ~2029 kbps avg, 25,000 fps, 0.263 bit/pix
Размер кадра: 720х[email protected]х428 (16:9)
Аудиокодек: AC3
Аудио: 48.0 kHz, AC3, 6 ch ~448 Kbps avg
Субтитры: отсутствуют

MediaInfo:

Формат : Matroska
Версия формата : Version 2
Размер файла : 757 Мбайт
Продолжительность : 42 м.
Общий поток : 2478 Кбит/сек
Дата кодирования : UTC 2012-05-11 14:52:48
Библиотека кодирования : libebml v1.2.2 + libmatroska v1.3.0
Видео
Идентификатор : 1
Формат : AVC
Формат/Информация : Advanced Video Codec
Профиль формата : [url=mailto:[email protected]][email protected][/url]
Параметр CABAC формата : Да
Параметр ReFrames формата : 11 кадров
Идентификатор кодека : V_MPEG4/ISO/AVC
Продолжительность : 42 м.
Битрейт : 2029 Кбит/сек
Ширина : 720 пикселей
Высота : 428 пикселей
Соотношение сторон : 16:9
Частота кадров : 25,000 кадров/сек
Цветовое пространство : YUV
Субдискретизация насыщенности : 4:2:0
Битовая глубина : 8 бит
Тип развёртки : Прогрессивная
Бит/(Пиксели*Кадры) : 0.263
Размер потока : 605 Мбайт (80%)
Библиотека кодирования : x264 core 119 r2106 07efeb4
Настройки программы : cabac=1 / ref=11 / deblock=1:0:0 / analyse=0x3:0x113 / me=umh / subme=10 / psy=1 / psy_rd=1.00:0.20 / mixed_ref=1 / me_range=32 / chroma_me=1 / trellis=2 / 8x8dct=1 / cqm=0 / deadzone=21,11 / fast_pskip=0 / chroma_qp_offset=-3 / threads=6 / sliced_threads=0 / nr=0 / decimate=0 / interlaced=0 / bluray_compat=0 / constrained_intra=0 / bframes=8 / b_pyramid=2 / b_adapt=2 / b_bias=0 / direct=3 / weightb=1 / open_gop=0 / weightp=2 / keyint=250 / keyint_min=25 / scenecut=40 / intra_refresh=0 / rc_lookahead=60 / rc=2pass / mbtree=1 / bitrate=2029 / ratetol=1.0 / qcomp=0.60 / qpmin=0 / qpmax=69 / qpstep=4 / cplxblur=20.0 / qblur=0.5 / ip_ratio=1.40 / aq=1:1.00
Default : Да
Forced : Нет
Аудио
Идентификатор : 2
Формат : AC-3
Формат/Информация : Audio Coding 3
Расширение режима : CM (complete main)
Идентификатор кодека : A_AC3
Продолжительность : 42 м.
Вид битрейта : Постоянный
Битрейт : 448 Кбит/сек
Каналы : 6 каналов
Расположение каналов : Front: L C R, Side: L R, LFE
Частота : 48,0 КГц
Битовая глубина : 16 бит
Метод сжатия : С потерями
Размер потока : 137 Мбайт (18%)
Default : Да
Forced : Нет

Дополнительно:

релиз рассчитан для записи на три DVD5
Скриншоты:
         
         
Other forum [Profile] [PM]
Display posts from previous:    
Reply to topic

The time now is: Today 16:54

All times are GMT + 3 Hours



You cannot post new topics in this forum
You cannot reply to topics in this forum
You cannot edit your posts in this forum
You cannot delete your posts in this forum
You cannot vote in polls in this forum
You cannot attach files in this forum
You cannot download files in this forum