Today is a free download without charge Download

Зеркальная маска / MirrorMask (Дэйв МакКин) [2005 г., фэнтези, драма, приключения, семейный, BDRip 1080p]

Reply to topic
 
Author
Message

Delia ®

Gender:

Longevity: 9 years 1 month

Posts: 1821

Торрент-статистика

Post 27-Apr-2011 18:33

[Quote]

MirrorMaskЗеркальная маска Год выпуска: 2005
Страна: США, Великобритания
Жанр: фэнтези, драма, приключения, семейный
Продолжительность: 01:40:45
Перевод: Профессиональный (многоголосый, закадровый)
Режиссер: Дэйв МакКин
Продюссер: Саймон Мурхед, Мартин Дж. Бэйкер, Лиза Хенсон
Сценарий: Нил Гейман, Дэйв МакКин
Бюджет: $4 000 000
Премьера в мире: 25 января 2005
В ролях: Стефани Леонидас, Джейсон Бэрри, Роб Брайдон, Джина МакКи, Дора Брайан, Стивен Фрай, Энди Хэмилтон, Саймон Харви, Ленни Генри, Роберт Ллевелин
Описание: Пятнадцатилетняя Хелена из семьи циркачей частенько мечтает о том, чтобы вырваться из этого окружения и зажить нормальной жизнью. После очередной ссоры с родителями, которые строят насчет ее будущего свои собственные планы, мать Хелены тяжко заболевает, и девочка винит в этом себя.В канун серьезной операции, которую должны сделать матери, Хелене снится сон о странном мире, в котором обитают две королевы, причудливые создания и жители в масках. Однако не все ладно в этой стране — белая королева тоже серьезно болеет, и спасти ее может лишь Зеркальная Маска, которую и придется найти девушке. Со временем главная героиня начинает сомневаться в том, что на самом деле спит...
Качество: BDRip 1080p
Формат: MKV
Видео кодек: H.264
Аудио кодек: AC3
Видео: English, 5252 Кбит/сек, 1920*1040 (16:9), в 23,976 кадр/сек, AVC ([email protected])
Аудио: Russian, 640 Кбит/сек, 48,0 КГц, 16 бит, 6 канала(ов), AC-3
Аудио:English, 320 Кбит/сек, 48,0 КГц, 16 бит, 6 канала(ов), AC-3
Субтитры:English, VobSub

MediaInfo:

Общее
Уникальный идентификатор : 244607731117628343437374604652240184277 (0xB805BC43189E1A16AF09B85C0E1023D5)
Полное имя : E:\торрент\MirrorMask (2005) BDRip 1080p.mkv
Формат : Matroska
Размер файла : 4,38 Гбайт
Продолжительность : 1 ч. 40 м.
Общий поток : 6217 Кбит/сек
Дата кодирования : UTC 2011-04-27 13:29:31
Программа кодирования : mkvmerge v4.7.0 ('Just Like You Imagined') built on Apr 21 2011 01:13:14
Библиотека кодирования : libebml v1.2.0 + libmatroska v1.1.0
Видео
Идентификатор : 1
Формат : AVC
Формат/Информация : Advanced Video Codec
Профиль формата : [email protected]
Параметр CABAC формата : Да
Параметр ReFrames формата : 8 кадры
Параметры GOP формата : M=5, N=59
Идентификатор кодека : V_MPEG4/ISO/AVC
Продолжительность : 1 ч. 40 м.
Битрейт : 5252 Кбит/сек
Ширина : 1920 пикс.
Высота : 1040 пикс.
Соотношение сторон : 16:9
Частота кадров : 23,976 кадр/сек
Цветовое пространство : YUV
Подвыборка цветности : 4:2:0
Битовая глубина : 8 бит
Тип развёртки : Прогрессивная
Бит/(Пиксели*Кадры) : 0.110
Размер потока : 3,61 Гбайт (83%)
Библиотека кодирования : x264 core 114 r1924 08d04a4
Настройки программы : cabac=1 / ref=8 / deblock=1:-2:-2 / analyse=0x3:0x133 / me=umh / subme=7 / psy=1 / psy_rd=1.00:0.15 / mixed_ref=1 / me_range=32 / chroma_me=1 / trellis=2 / 8x8dct=1 / cqm=0 / deadzone=21,11 / fast_pskip=0 / chroma_qp_offset=-3 / threads=6 / sliced_threads=0 / nr=0 / decimate=1 / interlaced=0 / constrained_intra=0 / bframes=4 / b_pyramid=2 / b_adapt=1 / b_bias=0 / direct=1 / weightb=0 / open_gop=0 / weightp=2 / keyint=250 / keyint_min=24 / scenecut=40 / intra_refresh=0 / rc_lookahead=50 / rc=2pass / mbtree=1 / bitrate=5252 / ratetol=1.0 / qcomp=0.80 / qpmin=5 / qpmax=51 / qpstep=4 / cplxblur=20.0 / qblur=0.5 / ip_ratio=1.40 / aq=1:1.00
Язык : English
Аудио #1
Идентификатор : 2
Формат : AC-3
Формат/Информация : Audio Coding 3
Расширение режима : CM (complete main)
Идентификатор кодека : A_AC3
Продолжительность : 1 ч. 40 м.
Вид битрейта : Постоянный
Битрейт : 640 Кбит/сек
Канал(ы) : 6 канала(ов)
Расположение каналов : Front: L C R, Side: L R, LFE
Частота : 48,0 КГц
Битовая глубина : 16 бит
Метод сжатия : С потерями
Размер потока : 461 Мбайт (10%)
Язык : Russian
Аудио #2
Идентификатор : 3
Формат : AC-3
Формат/Информация : Audio Coding 3
Расширение режима : CM (complete main)
Идентификатор кодека : A_AC3
Продолжительность : 1 ч. 40 м.
Вид битрейта : Постоянный
Битрейт : 320 Кбит/сек
Канал(ы) : 6 канала(ов)
Расположение каналов : Front: L C R, Side: L R, LFE
Частота : 48,0 КГц
Битовая глубина : 16 бит
Метод сжатия : С потерями
Размер потока : 231 Мбайт (5%)
Язык : English
Текст
Идентификатор : 4
Формат : VobSub
Режим смешивания : zlib
Идентификатор кодека : S_VOBSUB
Идентификатор кодека/Информация : The same subtitle format used on DVDs
Язык : English
Меню
00:00:00.000 : en:00:00:00.000
00:04:41.740 : en:00:04:41.740
00:11:16.092 : en:00:11:16.092
00:18:58.137 : en:00:18:58.137
00:24:12.201 : en:00:24:12.201
00:31:42.859 : en:00:31:42.859
00:35:13.778 : en:00:35:13.778
00:43:42.578 : en:00:43:42.578
00:48:09.970 : en:00:48:09.970
00:53:51.728 : en:00:53:51.728
01:00:13.235 : en:01:00:13.235
01:07:26.000 : en:01:07:26.000
01:16:26.791 : en:01:16:26.791
01:22:51.425 : en:01:22:51.425
01:29:55.098 : en:01:29:55.098
01:33:52.210 : en:01:33:52.210

Скриншоты

        

_________________
Человек – это канат, натянутый между животным и сверхчеловеком, – канат над пропастью.
В человеке ценно то, что он мост, а не цель. Фридрих Ницше


Last edited by Delia on 2011-08-26 18:56; edited 3 times in total
Other forum [Profile] [PM]
Display posts from previous:    
Reply to topic

The time now is: Today 17:52

All times are GMT + 3 Hours



You cannot post new topics in this forum
You cannot reply to topics in this forum
You cannot edit your posts in this forum
You cannot delete your posts in this forum
You cannot vote in polls in this forum
You cannot attach files in this forum
You cannot download files in this forum