Today is a free download without charge Download

Музыка на Дожде: «Мумий Тролль» для улетающих – концерт в Шереметьево [2013, Pop, HDTV 1080i]

Reply to topic
 
Author
Message

Omen ®

Longevity: 8 years 3 months

Posts: 181087

Торрент-статистика

Post 12-Jan-2013 13:04

[Quote]

Музыка на Дожде: «Мумий Тролль» для улетающих – концерт в Шереметьево
Жанр: Rock
Продолжительность: 00:32:28
Год выпуска: 2013
Описание: Полная версия концерта группы «Мумий Тролль» в аэропорту Шереметьево, который состоялся 22 декабря, накануне Нового года. Этот подарок организовал телеканал ДОЖДЬ всем вылетающим в этот день из терминала D.
Доп. информация: Плейлист:
1. В рейс
2. Карнавала нет
3. Утекай
4. Кажется
5. Невеста
6. Владивосток 2000
7. С Новым годом, крошка!
Качество: HDTV 1080i
Контейнер: TS
Видео кодек: AVC
Аудио кодек: AAC
Видео: AVC, 1920х1080, 16:9, 8562 Кбит/сек, 25 fps
Аудио: MPEG Audio, 192 Кбит/сек, 48 КГц, 2 канала

Отчёт MediaInfo / BDInfo

ОбщееИдентификатор : 1 (0x1)Полное имя : Moomiy Troll concert at Sheremetyevo Airport (Edited).m2tsФормат : BDAVФормат/Информация : Blu-ray VideoРазмер файла : 2,07 ГбайтПродолжительность : 32 м.Режим общего битрейта : ПеременныйОбщий поток : 9125 Кбит/сек
ВидеоИдентификатор : 4113 (0x1011)Идентификатор меню : 1 (0x1)Формат : AVCФормат/Информация : Advanced Video CodecПрофиль формата : [email protected]Параметр CABAC формата : ДаПараметр ReFrames формата : 4 кадраИдентификатор кодека : 27Продолжительность : 32 м.Битрейт : 8562 Кбит/секШирина : 1920 пикселейВысота : 1080 пикселейСоотношение сторон : 16:9Частота кадров : 25,000 кадров/секСтандарт вещания : PALЦветовое пространство : YUVСубдискретизация насыщенности : 4:2:0Битовая глубина : 8 битТип развёртки : ЧересстрочнаяПорядок развёртки : Верхнее поле первоеБит/(Пиксели*Кадры) : 0.165Размер потока : 1,94 Гбайт (94%)Основные цвета : BT.709Характеристики трансфера : BT.709Коэффициенты матрицы : BT.709
АудиоИдентификатор : 4352 (0x1100)Идентификатор меню : 1 (0x1)Формат : MPEG AudioВерсия формата : Version 1Профиль формата : Layer 2Идентификатор кодека : 4Продолжительность : 32 м.Вид битрейта : ПостоянныйБитрейт : 192 Кбит/секКаналы : 2 каналаЧастота : 48,0 КГцМетод сжатия : С потерямиЗадержка видео : 48 мс.Размер потока : 44,6 Мбайт (2%)Язык : stdЯзык, дополнительно : Clean effects

Скриншоты

Other forum [Profile] [PM]
Display posts from previous:    
Reply to topic

The time now is: Today 08:40

All times are GMT + 3 Hours



You cannot post new topics in this forum
You cannot reply to topics in this forum
You cannot edit your posts in this forum
You cannot delete your posts in this forum
You cannot vote in polls in this forum
You cannot attach files in this forum
You cannot download files in this forum