Today is a free download without charge Download

Неравный брак [51 - 52 серии из 80] (2012) SATRip

Reply to topic
 
Author
Message

Omen ®

Longevity: 8 years 11 months

Posts: 181086

Торрент-статистика

Post 12-Jan-2013 11:00

[Quote]

-Неравный брак [51 - 52 серии из 80] (2012) SATRip - Русское название: Неравный брак
Страна: Россия
Производство: ТелеРоман
Год выпуска: 2012
Жанр: Мелодрама

Трейлер
Дата российской премьеры: с 15 октября 2012 на
Режиссер: Виталий Бабенко, Сергей Терещук, Лев Гришин
Cценарий: Юрий Каменецкий, Евгений Фролов, Филипп Коршунов
Актеры: Александр Кузнецов, Дмитрий Брусникин, Алла Довлатова, Елена Костина, Сергей Барковский, Владимир Денисов, Олег Семисынов, Мария Антипова, Иван Иванов, Виктория Полторак, Павел Климов, Анна Антонелли, Алексей Маслодудов, Олег Соловьев, Татьяна Горчакова, Александр Толмачев, Ангелина Притуманова, Самсон Ревазян, Владимир Гориславец, Лилия Лаврова, Валентина Сулеманова, Тимофей Скрипкин, Александр Хинкис
Описание фильма:
Двадцатилетняя студентка медицинского ВУЗа Алиса влюблена и счастлива: ее парень Егор, восходящая звезда боев без правил, только что прямо на ринге сделал ей предложение. Но счастье Алисы оказывается недолгим. Ради отца, задолжавшего крупную сумму денег бандитам, Алиса вынуждена выйти замуж по расчету. Ее муж, успешный пятидесятилетний бизнесмен Султан Бакоев, влюблен в Алису и готов ради нее свернуть горы. Только это не нужно самой Алисе. Она ненавидит мужа и не замечает, что ей достался очень честный, умный и достойный уважения мужчина...
Возрастные ограничения: 16+ |зрителям, достигшим 16 лет|
Продолжительность: 2 х ~ 00:44:58
Качество видео: SATRip
Видеокодек: DivX 3
Битрейт видео: ~ 1501 Кбит/сек
Размер кадра: 704x400
Аудиокодек: MP3 2 ch
Битрейт аудио: 128 Кбит/с

MediaInfo:

Общее
Полное имя : Неравный брак (51- x)\051 Неравный брак.avi
Формат : AVI
Формат/Информация : Audio Video Interleave
Размер файла : 527 Мбайт
Продолжительность : 44 м.
Общий поток : 1639 Кбит/сек
Библиотека кодирования : VirtualDub build 32842/release
Видео
Идентификатор : 0
Формат : MPEG-4 Visual
Параметр BVOP формата : 1
Параметр QPel формата : Нет
Параметр GMC формата : Без точки перехода
Параметр матрицы формата : Default (H.263)
Режим смешивания : Сжатый битовый поток
Идентификатор кодека : DX50
Идентификатор кодека/Подсказка : DivX 5
Продолжительность : 44 м.
Битрейт : 1501 Кбит/сек
Ширина : 704 пикселя
Высота : 400 пикселей
Соотношение сторон : 16:9
Частота кадров : 25,000 кадров/сек
Цветовое пространство : YUV
Субдискретизация насыщенности : 4:2:0
Битовая глубина : 8 бит
Тип развёртки : Прогрессивная
Метод сжатия : С потерями
Бит/(Пиксели*Кадры) : 0.213
Размер потока : 483 Мбайт (92%)
Библиотека кодирования : DivX 6.8.5 (UTC 2009-08-20)
Аудио
Идентификатор : 1
Формат : MPEG Audio
Версия формата : Version 1
Профиль формата : Layer 3
Режим : Joint stereo
Расширение режима : MS Stereo
Идентификатор кодека : 55
Идентификатор кодека/Подсказка : MP3
Продолжительность : 44 м.
Вид битрейта : Постоянный
Битрейт : 128 Кбит/сек
Каналы : 2 канала
Частота : 48,0 КГц
Метод сжатия : С потерями
Размер потока : 41,2 Мбайт (8%)
Выравнивание : Разделение по промежуткам
Продолжительность промежутка : 40 мс. (1,00 видеокадр)
Время предзагрузки промежутка : 500 мс.

Раздача ведётся путём добавления новых серий!:

При каждом добавлении создётся новый торрент. Чтобы начать докачку новой серии, пользователям необходимо сделать следующее: (1) остановить скачивание, (2) удалить старый торрент у себя из клиента (старые серии удалять не надо), (3) скачать новый торрент и запустить его у себя в клиенте вместо старого, при этом указать клиенту путь в старую папку куда и должно происходить скачивание новых серий.
Ваш клиент при этом должен произвести хеширование (проверку) старой папки (если не производит сам - помогите ему сделать это), и будет докачивать только те серии которых у вас ещё нет. Старые серии при этом не удаляются, а продолжают раздаваться!
Eсли вы уже удалили старые серии, то предотвратить повторную закачку старых серий можно, отжав галочку в соответсвующих местах при запуске нового торрента.

Как скачать отдельный файл или докачать пропущенные файлы - подробно:

Чтобы скачать одну серию, сначала необходимо, чтобы Ваш клиент (я объясняю на примере uTorrent) при открытии торрента показывал Вам содержимое торрента. Для этого в настройках Вашего клиента во вкладке Интерфейс надо найти слова При добавлении торрента и ниже около слов Отображать содержимое торрента в маленьком окошке поставить галочку. Потом нажать Применить и ОК.
После этого при открытии торрента Вашим клиентом сначала откроется окошко с содержимым торрента, где Вы увидите все файлы, содержащиеся в этом торренте. Напротив каждого файла в маленьком окошке будет стоять галочка, которую Вы можете убрать, если данный файл Вам качать не нужно. Оставляете галочки только напротив тех файлов, которые Вам нужно скачать.
Если в торренте файлов много, а нужен только один, то можно воспользоваться предложением Отменить всё, находящимся справа вверху над содержимым торрента в отдельном окошке. При нажатии на это окошко исчезают все галочки напротив всех файлов. Осталось только найти нужный файл, поставить в маленьком окошке напротив него галочку и нажать ОК. После того, как скачивание закончится (100%), Вы получите папку, в которой будет один нужный Вам файл.
01 - 20 серии "Неравный брак"
21 - 30 серии "Неравный брак"
31 - 40 серии "Неравный брак"
41 - 50 серии "Неравный брак"Скриншоты:
       
       
Время раздачи
с 8:00 до 02:00
Other forum [Profile] [PM]
Display posts from previous:    
Reply to topic

The time now is: Today 09:36

All times are GMT + 3 Hours



You cannot post new topics in this forum
You cannot reply to topics in this forum
You cannot edit your posts in this forum
You cannot delete your posts in this forum
You cannot vote in polls in this forum
You cannot attach files in this forum
You cannot download files in this forum