Today is a free download without charge Download

Каждый за себя / Части: 1-2 из 3 (серии: 1-4 из 6) (Роман Просвирнин) [2012, Мелодрама, HDTVRip - AVC]

Reply to topic
 
Author
Message

Omen ®

Longevity: 8 years 11 months

Posts: 181086

Торрент-статистика

Post 12-Jan-2013 00:48

[Quote]

Каждый за себя- Год выпуска: 2012
Производство: Россия, Кинокомпания "Русское"
Жанр: Мелодрама
Продолжительность: 01:26:35
Субтитры: нет-Режиссёр: Роман Просвирнин-В ролях: Светлана Кожемякина, Михаил Сафронов (II), Вадим Медведев (II), Юрий Назаров, Константин Карасик, Елена Бирюкова, Валерий Баринов, Григорий Адаменко, Николай Сирин, Олег Алмазов, Дмитрий Исаев, Андрей Межулис, Елена Дудина, Елена Мироненко, Михаил Чепуров, Алексей Макаров, Арсений Перов, Анна Сильчук, Александр Молочников, Юлия Яблонская, Татьяна Ташкова, Анастасия Шеховцова, Анна Тришкина, Сергей Насибов, Михаил Самохвалов, Анна Соловейчик, Татьяна Клюкина, Алексей Медведев, Михаил Волков (II), Дмитрий Баринов, Ольга Демидова, Дмитрий Зеничев, Григорий Рыжиков-Описание: Ника – цветущая молодая женщина, ее жизнь – воплощенная мечта: красота, любимый муж, успешный бизнес. «Мне везет в Москве с первого дня», - говорит героиня. Но однажды череда удач резко обрывается – муж Ники Олег впадает в долги и под угрозой смерти должен найти огромную сумму в считанные дни.. Чтобы спасти его, героиня устраивается домработницей и, закабалив себя на год, получает в кредит заветную сумму. Нике кажется, что несчастье миновало, но главный удар впереди – забрав деньги, муж бросает женщину ради новой любви и Ника остаётся один на один со своим отчаянием и новой «семьёй», где царят совсем другие законы..-Доп. Информация: Спасибо mydimka за предоставленный исходник!-Любая реклама ОТСУТСТВУЕТ!!!-Сэмпл-Качество: HDTVRip - AVC
Формат: MKV
Видео кодек: H.264
Аудио кодек: AC3
Видео: x264, 1024 х 576 (16:9), 25,000 кадр/сек, ~ 1709 Кбит/сек, ~ 0.116 bit/pixel
Аудио: AC3, 48.0 KHz, 2 канала(ов), 192 kbs

MI

Полное имя : Каждый за себя.01 часть.2012.HDTVRip-AVC.Metla111.mkv
Формат : Matroska
Версия формата : Version 2
Размер файла : 1,15 Гбайт
Продолжительность : 1 ч. 26 м.
Общий поток : 1902 Кбит/сек
Дата кодирования : UTC 2013-01-10 16:11:21
Программа кодирования : mkvmerge v5.8.0 ('No Sleep / Pillow') built on Sep 2 2012 15:37:04
Библиотека кодирования : libebml v1.2.3 + libmatroska v1.3.0
Видео
Идентификатор : 1
Формат : AVC
Формат/Информация : Advanced Video Codec
Профиль формата : [email protected]
Параметр CABAC формата : Да
Параметр ReFrames формата : 12 кадров
Идентификатор кодека : V_MPEG4/ISO/AVC
Продолжительность : 1 ч. 26 м.
Битрейт : 1709 Кбит/сек
Ширина : 1024 пикселя
Высота : 576 пикселей
Соотношение сторон : 16:9
Режим частоты кадров : Постоянный
Частота кадров : 25,000 кадров/сек
Цветовое пространство : YUV
Субдискретизация насыщенности : 4:2:0
Битовая глубина : 8 бит
Тип развёртки : Прогрессивная
Бит/(Пиксели*Кадры) : 0.116
Размер потока : 1,01 Гбайт (88%)
Библиотека кодирования : x264 core 125 r2208 d9d2288
Настройки программы : cabac=1 / ref=12 / deblock=1:-2:-2 / analyse=0x3:0x113 / me=umh / subme=9 / psy=1 / psy_rd=1.00:0.20 / mixed_ref=1 / me_range=32 / chroma_me=1 / trellis=2 / 8x8dct=1 / cqm=0 / deadzone=21,11 / fast_pskip=1 / chroma_qp_offset=-3 / threads=6 / lookahead_threads=1 / sliced_threads=0 / nr=0 / decimate=0 / interlaced=0 / bluray_compat=0 / constrained_intra=0 / bframes=10 / b_pyramid=2 / b_adapt=2 / b_bias=0 / direct=3 / weightb=1 / open_gop=0 / weightp=2 / keyint=250 / keyint_min=25 / scenecut=40 / intra_refresh=0 / rc=2pass / mbtree=0 / bitrate=1709 / ratetol=1.0 / qcomp=0.70 / qpmin=0 / qpmax=69 / qpstep=4 / cplxblur=20.0 / qblur=0.5 / ip_ratio=1.40 / pb_ratio=1.30 / aq=2:1.00
Default : Да
Forced : Нет
Основные цвета : BT.709
Характеристики трансфера : BT.709
Коэффициенты матрицы : BT.709
Аудио
Идентификатор : 2
Формат : AC-3
Формат/Информация : Audio Coding 3
Расширение режима : CM (complete main)
Параметр Endianness формата : Big
Идентификатор кодека : A_AC3
Продолжительность : 1 ч. 26 м.
Вид битрейта : Постоянный
Битрейт : 192 Кбит/сек
Каналы : 2 канала
Расположение каналов : Front: L R
Частота : 48,0 КГц
Битовая глубина : 16 бит
Метод сжатия : С потерями
Размер потока : 119 Мбайт (10%)
Default : Да
Forced : Нет

Log - x264

raw [info]: 1024x576p 1:1 @ 25/1 fps (cfr)
x264 [info]: using SAR=1/1
x264 [info]: using cpu capabilities: MMX2 SSE2Fast SSSE3 FastShuffle SSE4.2
x264 [info]: profile High, level 4.0
x264 [info]: frame I:741 Avg QP:19.11 size: 75440
x264 [info]: frame P:31782 Avg QP:21.70 size: 20760
x264 [info]: frame B:102522 Avg QP:24.06 size: 4178
x264 [info]: consecutive B-frames: 1.0% 1.6% 4.5% 59.6% 14.6% 15.8% 1.3% 1.4% 0.1% 0.0% 0.1%
x264 [info]: mb I I16..4: 8.8% 66.5% 24.7%
x264 [info]: mb P I16..4: 0.8% 5.6% 1.1% P16..4: 46.6% 22.3% 12.3% 0.0% 0.0% skip:11.3%
x264 [info]: mb B I16..4: 0.1% 0.4% 0.1% B16..8: 37.3% 5.1% 1.3% direct: 3.1% skip:52.6% L0:36.4% L1:49.0% BI:14.5%
x264 [info]: 8x8 transform intra:72.7% inter:59.7%
x264 [info]: direct mvs spatial:97.0% temporal:3.0%
x264 [info]: coded y,uvDC,uvAC intra: 86.4% 78.4% 43.4% inter: 16.7% 14.8% 4.7%
x264 [info]: i16 v,h,dc,p: 30% 15% 9% 46%
x264 [info]: i8 v,h,dc,ddl,ddr,vr,hd,vl,hu: 14% 9% 4% 8% 13% 14% 13% 12% 12%
x264 [info]: i4 v,h,dc,ddl,ddr,vr,hd,vl,hu: 14% 10% 3% 8% 14% 15% 13% 11% 12%
x264 [info]: i8c dc,h,v,p: 34% 25% 25% 16%
x264 [info]: Weighted P-Frames: Y:1.8% UV:0.5%
x264 [info]: ref P L0: 47.0% 15.1% 18.1% 4.3% 4.5% 2.5% 2.8% 1.1% 1.4% 0.9% 1.2% 1.0% 0.1% 0.0%
x264 [info]: ref B L0: 84.4% 8.9% 2.6% 1.3% 0.8% 0.7% 0.5% 0.3% 0.2% 0.2% 0.1%
x264 [info]: ref B L1: 96.2% 3.8%
x264 [info]: kb/s:1694.25

Скриншоты

Внимание ! Раздача ведётся путём добавления новых серий

Внимание! Раздача ведётся путём добавления новых серий; при каждом добавлении создаётся новый торрент. Чтобы начать докачку новой серии, пользователям необходимо сделать следующее:
(1) остановить скачивание,
(2) удалить старый торрент у себя из клиента (старые серии удалять не надо),
(3) скачать новый торрент и запустить его у себя в клиенте вместо старого, при этом указать клиенту путь в старую папку куда и должно происходить скачивание новых серий.
Ваш клиент при этом должен произвести хеширование (проверку) старой папки (если не производит сам - помогите ему сделать это), и будет докачивать только те серии которых у вас ещё нет. Старые серии при этом не удаляются, а продолжают раздаваться!
Если вы уже удалили старые серии, то предотвратить повторную закачку старых серий можно, отжав галочку в соответствующих местах при запуске нового торрента. По возможности, желательно не удалять старые серии как можно дольше чтобы релизёр не столько продолжал раздавать старые серии, а смог сконцентрироваться на новых.
-
Other forum [Profile] [PM]
Display posts from previous:    
Reply to topic

The time now is: Today 09:29

All times are GMT + 3 Hours



You cannot post new topics in this forum
You cannot reply to topics in this forum
You cannot edit your posts in this forum
You cannot delete your posts in this forum
You cannot vote in polls in this forum
You cannot attach files in this forum
You cannot download files in this forum