Today is a free download without charge Download

Однолюбы / Серии: 1-12 из 12 (Александр (Алеко) Цабадзе) [2012, Семейная сага, HDTVRip - AVC]

Reply to topic
 
Author
Message

Omen ®

Longevity: 8 years 11 months

Posts: 181086

Торрент-статистика

Post 12-Jan-2013 00:48

[Quote]

Однолюбы- Год выпуска: 2012
Производство: Кинокомпания «Щука»
Жанр: Семейная сага
Продолжительность: ~ 00:51:00
Субтитры: нет-Режиссёр: Александр (Алеко) Цабадзе-В ролях: Иван Стебунов, Александр Робак, Татьяна Черкасова, Фёдор Лавров, Александра Урсуляк, Полина Стрельникова, Максим Лагашкин, Михаил Евланов, Галина Петрова, Александр Новин, Николай Качура, Анастасия Боброва, Павел Южаков-Харланчук, Влад Денякин, Полина Стефанович, Иван Щетко-Описание: Если бы кто-то в 1980 году сказал Яхонтовым и Удальцовым, что очень скоро их семьи свяжет сначала непримиримая вражда, а потом кровное родство, замешанное, правда, все на той же ненависти, они бы не поверили. К тому же той осенью, Яхонтовым и Удальцовым было не до глупых прогнозов на будущее. И у тех, и у других было полно счастливых хлопот - счастливые и взволнованные папаши забирали из роддома своих жен, крепко прижимающих к груди крикливые свертки. У Яхонтовых сверток был с розовым бантом – и дочку решено было назвать Машенькой, а голубое одеяльце, в котором сопел щекастый новорожденный малыш, на весь мир сигнализировало о том, что в семье Удальцовых появился сын – Ванечка. Маша и Ванечка много спали, с удовольствием ели, орали и беспрестанно пачкали пеленки, не зная, что невидимые нити судьбы уже прочно связали их жизни. Их жизни – и жизни их пока еще не связанных друг с другом семей…-Доп. Информация: Спасибо mydimka за предоставленный исходник!-Любая реклама ОТСУТСТВУЕТ!!!--Качество: HDTVRip - AVC
Формат: MKV
Видео кодек: H.264
Аудио кодек: AC3
Видео: x264, 1016 х 568 (16:9), 25,000 кадр/сек, ~ 1719 Кбит/сек, ~ 0.119 bit/pixel
Аудио: AC3, 48.0 KHz, 2 канала(ов), 384 kbs

MI

Полное имя : Однолюбы.01 серия.2012.HDTVRip-AVC.Metla111.mkv
Формат : Matroska
Версия формата : Version 2
Размер файла : 700 Мбайт
Продолжительность : 46 м.
Общий поток : 2105 Кбит/сек
Дата кодирования : UTC 2013-01-09 07:15:59
Программа кодирования : mkvmerge v5.8.0 ('No Sleep / Pillow') built on Sep 2 2012 15:37:04
Библиотека кодирования : libebml v1.2.3 + libmatroska v1.3.0
Видео
Идентификатор : 1
Формат : AVC
Формат/Информация : Advanced Video Codec
Профиль формата : [email protected]
Параметр CABAC формата : Да
Параметр ReFrames формата : 12 кадров
Идентификатор кодека : V_MPEG4/ISO/AVC
Продолжительность : 46 м.
Битрейт : 1719 Кбит/сек
Ширина : 1016 пикселей
Высота : 568 пикселей
Соотношение сторон : 16:9
Режим частоты кадров : Постоянный
Частота кадров : 25,000 кадров/сек
Цветовое пространство : YUV
Субдискретизация насыщенности : 4:2:0
Битовая глубина : 8 бит
Тип развёртки : Прогрессивная
Бит/(Пиксели*Кадры) : 0.119
Размер потока : 558 Мбайт (80%)
Библиотека кодирования : x264 core 125 r2208 d9d2288
Настройки программы : cabac=1 / ref=12 / deblock=1:-3:-3 / analyse=0x3:0x113 / me=umh / subme=9 / psy=1 / psy_rd=1.00:0.25 / mixed_ref=1 / me_range=32 / chroma_me=1 / trellis=2 / 8x8dct=1 / cqm=0 / deadzone=6,6 / fast_pskip=1 / chroma_qp_offset=-4 / threads=12 / lookahead_threads=2 / sliced_threads=0 / nr=0 / decimate=0 / interlaced=0 / bluray_compat=0 / constrained_intra=0 / bframes=10 / b_pyramid=2 / b_adapt=2 / b_bias=0 / direct=3 / weightb=1 / open_gop=0 / weightp=2 / keyint=250 / keyint_min=25 / scenecut=40 / intra_refresh=0 / rc=2pass / mbtree=0 / bitrate=1719 / ratetol=1.0 / qcomp=0.80 / qpmin=0 / qpmax=69 / qpstep=4 / cplxblur=20.0 / qblur=0.5 / ip_ratio=1.10 / pb_ratio=1.10 / aq=1:0.50
Default : Да
Forced : Нет
Основные цвета : BT.709
Характеристики трансфера : BT.709
Коэффициенты матрицы : BT.709
Аудио
Идентификатор : 2
Формат : AC-3
Формат/Информация : Audio Coding 3
Расширение режима : CM (complete main)
Параметр Endianness формата : Big
Идентификатор кодека : A_AC3
Продолжительность : 46 м.
Вид битрейта : Постоянный
Битрейт : 384 Кбит/сек
Каналы : 2 канала
Расположение каналов : Front: L R
Частота : 48,0 КГц
Битовая глубина : 16 бит
Метод сжатия : С потерями
Размер потока : 128 Мбайт (18%)
Язык : English
Default : Да
Forced : Нет

Log - x264

raw [info]: 1016x568p 1:1 @ 25/1 fps (cfr)
x264 [info]: using SAR=1/1
x264 [info]: using cpu capabilities: MMX2 SSE2Fast SSSE3 FastShuffle SSE4.2 AVX XOP FMA4 FMA3 SSEMisalign LZCNT BMI1 TBM
x264 [info]: profile High, level 4.0
x264 [info]: frame I:507 Avg QP:21.05 size: 47901
x264 [info]: frame P:18306 Avg QP:22.07 size: 17568
x264 [info]: frame B:50911 Avg QP:22.98 size: 4976
x264 [info]: consecutive B-frames: 1.9% 4.3% 7.4% 71.5% 5.9% 7.6% 1.0% 0.3% 0.1% 0.0% 0.1%
x264 [info]: mb I I16..4: 8.9% 77.8% 13.3%
x264 [info]: mb P I16..4: 1.4% 9.3% 1.3% P16..4: 50.5% 18.7% 12.0% 0.0% 0.0% skip: 6.8%
x264 [info]: mb B I16..4: 0.1% 0.8% 0.1% B16..8: 35.3% 6.7% 1.7% direct: 3.9% skip:51.4% L0:33.2% L1:46.7% BI:20.1%
x264 [info]: 8x8 transform intra:77.6% inter:67.4%
x264 [info]: direct mvs spatial:97.4% temporal:2.6%
x264 [info]: coded y,uvDC,uvAC intra: 81.4% 77.7% 36.5% inter: 17.5% 22.1% 5.3%
x264 [info]: i16 v,h,dc,p: 34% 16% 4% 47%
x264 [info]: i8 v,h,dc,ddl,ddr,vr,hd,vl,hu: 19% 11% 4% 7% 11% 13% 12% 12% 11%
x264 [info]: i4 v,h,dc,ddl,ddr,vr,hd,vl,hu: 21% 10% 2% 7% 13% 14% 12% 11% 10%
x264 [info]: i8c dc,h,v,p: 32% 26% 27% 15%
x264 [info]: Weighted P-Frames: Y:3.8% UV:1.3%
x264 [info]: ref P L0: 52.9% 17.2% 16.1% 3.0% 3.0% 1.7% 1.9% 0.8% 0.9% 0.7% 0.8% 0.8% 0.1% 0.0%
x264 [info]: ref B L0: 87.7% 7.7% 1.8% 0.9% 0.5% 0.4% 0.3% 0.2% 0.2% 0.1% 0.1%
x264 [info]: ref B L1: 97.2% 2.8%
x264 [info]: kb/s:1718.90

Скриншоты

-
Other forum [Profile] [PM]
Display posts from previous:    
Reply to topic

The time now is: Today 11:10

All times are GMT + 3 Hours



You cannot post new topics in this forum
You cannot reply to topics in this forum
You cannot edit your posts in this forum
You cannot delete your posts in this forum
You cannot vote in polls in this forum
You cannot attach files in this forum
You cannot download files in this forum