Today is a free download without charge Download

Каждый за себя / Сезон: 1 / Части: 1-3 из 3 (Роман Просвирнин) [2012, драма, мелодрама, HDTVRip]

Reply to topic
 
Author
Message

Omen ®

Longevity: 8 years 11 months

Posts: 181086

Торрент-статистика

Post 12-Jan-2013 00:48

[Quote]

Каждый за себя- Год выпуска: 2012
Страна: Россия / кинокомпания "Русское"
Жанр: драма, мелодрама
Продолжительность: 01:26:35 + 01:30:01 + 01:33:12-Режиссёр: Роман Просвирнин
В ролях: Светлана Кожемякина (Ника), Михаил Сафронов (Олег), Вадим Медведев (Миша), Юрий Назаров (Николай Гремин), Константин Карасик (Павел Гремин), Елена Бирюкова (Наталья Гремина), Валерий Баринов (дядя Назар), Григорий Адаменко (Костя), Николай Сирин (Вадик), Олег Алмазов (папа Кости и Вадика), Дмитрий Исаев (Игорь), Андрей Межулис (Виктор Валентинович)
Описание: Ника - цветущая молодая женщина, ее жизнь - воплощенная мечта: красота, любимый муж, успешный бизнес. «Мне везет в Москве с первого дня», - говорит героиня.
Но однажды череда удач резко обрывается - муж Ники Олег впадает в долги и под угрозой смерти должен найти огромную сумму в считанные дни...
Чтобы спасти его, героиня устраивается домработницей и, закабалив себя на год, получает в кредит заветную сумму. Нике кажется, что несчастье миновало, но главный удар впереди - забрав деньги, муж бросает женщину ради новой любви и Ника остаётся один на один со своим отчаянием и новой «семьёй», где царят совсем другие законы...- -Качество видео: HDTVRip [Спасибо mydimka]
Формат: AVI
Видео: XviD, 656x368 (16:9), 25 fps, ~1000 kbps, 0.177 bpp
Аудио: MP3, 48 kHz, 2 ch, ~128 kbps-

Дополнительная информация

mydimka писал(а):
Ранее сериал раздавался по сериям длиной 45 минут. Однако сериал снимался частями. Тут раздача именно частями.

MediaInfo

General
Complete name : J:\torrents\Каждый за себя 2012\Каждый за себя (2012) HDTVRip\Kazhdyi.za.sebya.S01E01.2012.HDTVRip.XviD.avi
Format : AVI
Format/Info : Audio Video Interleave
File size : 746 MiB
Duration : 1h 26mn
Overall bit rate : 1 205 Kbps
Writing application : VirtualDubMod 1.5.10.3 | www.virtualdub-fr.org || (build 2550/release)
Writing library : VirtualDubMod build 2550/release
Video
ID : 0
Format : MPEG-4 Visual
Format profile : Advanced [email protected]
Format settings, BVOP : 2
Format settings, QPel : No
Format settings, GMC : No warppoints
Format settings, Matrix : Custom
Codec ID : XVID
Codec ID/Hint : XviD
Duration : 1h 26mn
Bit rate : 1 067 Kbps
Width : 656 pixels
Height : 368 pixels
Display aspect ratio : 16:9
Frame rate : 25.000 fps
Color space : YUV
Chroma subsampling : 4:2:0
Bit depth : 8 bits
Scan type : Progressive
Compression mode : Lossy
Bits/(Pixel*Frame) : 0.177
Stream size : 661 MiB (89%)
Writing library : XviD 65
Audio
ID : 1
Format : MPEG Audio
Format version : Version 1
Format profile : Layer 3
Mode : Joint stereo
Mode extension : MS Stereo
Codec ID : 55
Codec ID/Hint : MP3
Duration : 1h 26mn
Bit rate mode : Constant
Bit rate : 128 Kbps
Channel(s) : 2 channels
Sampling rate : 48.0 KHz
Compression mode : Lossy
Stream size : 79.3 MiB (11%)
Alignment : Aligned on interleaves
Interleave, duration : 40 ms (1.00 video frame)
Interleave, preload duration : 504 ms
Writing library : LAME3.99r
Encoding settings : -m j -V 4 -q 0 -lowpass 17 -b 128

Скриншоты

Other forum [Profile] [PM]
Display posts from previous:    
Reply to topic

The time now is: Today 12:38

All times are GMT + 3 Hours



You cannot post new topics in this forum
You cannot reply to topics in this forum
You cannot edit your posts in this forum
You cannot delete your posts in this forum
You cannot vote in polls in this forum
You cannot attach files in this forum
You cannot download files in this forum