Today is a free download without charge Download

Площадь Колумба / Columbus Circle (Джордж Галло / George Gallo) [2012, США, триллер, криминал, детектив, BDRemux 1080p] VO (агент смит) + VO (Сергей Фурман) + Original Eng + Subs (Rus, Eng)

Reply to topic
 
Author
Message

Omen ®

Longevity: 8 years 5 months

Posts: 181087

Торрент-статистика

Post 12-Jan-2013 00:48

[Quote]

Площадь Колумба / Columbus Circle «An Appatrment To Die For.» Год выпуска: 2012
Страна: США
Жанр: триллер, криминал, детектив
Продолжительность: 01:25:54
Перевод 1: Одноголосый закадровый агент смит по субтитрам kato_rapture
Перевод 2: Одноголосый закадровый Сергей Фурман по субтитрам kato_rapture
Оригинальная аудиодорожка: Английская
Субтитры: Русские (kato_rapture), английские
Студия: Oxymoron Entertainment, Blue Star Entertainment, G4 Pictures
Режиссёр: Джордж Галло / George Gallo
В ролях: Сэльма Блэр, Эми Смарт, Джейсон Ли, Джованни Рибизи, Кевин Поллак, Бо Бриджес, Джейсон Антун, Джерри Пенаколи, Роберт Гийом, Сэмм Ливайн и др.
Описание: Сюжет фильма строится вокруг нелюдимой и одинокой наследницы состояния своей семьи Эбигейл, которая не покидает квартиры на Манхэттене уже два десятка лет. Она общается только с двумя людьми: через записки с консьержем своего дома и с доктором Реймондом Фонтейном, старинным другом семьи Эбигейл и поверенным во всех ее делах.
Героине приходится столкнуться со своими страхами, когда полицейский детектив начинает расследование убийства, произошедшего в квартире напротив.
  • Кинопоиск
  • IMDB
  • Blu-ray.com
  • Сэмпл
    Качество: BDRemux 1080p (Columbus Circle 2010 11080p Blu-ray VC-1 DTS-HD MA 5.1-TTG)
    Контейнер: MKV
    Видео кодек: VC-1 Video
    Аудио кодек: Dolby Digital Audio / DTS-HD Master Audio
    Видео: VC-1 Video / 30686 kbps / 1920x1080p / 23,976 fps / 16:9 / Advanced Profile 3
    Аудио 1: Русский / DTS-HD Master Audio / 3363 kbps / 5.1 / 48 kHz / 24-bit (DTS Core: 5.1 / 48 kHz / 1509 kbps / 24-bit) (VO агент смит)
    Аудио 2: Русский / Dolby Digital Audio / 448 kbps / 5.1 / 48 kHz / 16-bit (VO Сергей Фурман)
    Аудио 3: English / DTS-HD Master Audio / 3712 kbps / 5.1 / 48 kHz / 24-bit (DTS Core: 5.1 / 48 kHz / 1509 kbps / 24-bit) (Оригинал)
    Навигация по главам: да

Дополнительная информация

  • Русская дорожка VO агент смит получена наложением выделенного голоса на центр декодированного DTS-HD MA.

Скриншот с названием фильма

MediaInfo

Z:\/*spam*/\Площадь Колумба (Columbus Circle) 2012, США, триллер, криминал, детектив, BDRemux 1080p GORENOISE.mkv
General
Unique ID : 205205777108163440223369082763798556614 (0x9A6131F160C6B2CE8E6E09348B0AAFC6)
Complete name : Z:\/*spam*/\Площадь Колумба (Columbus Circle) 2012, США, триллер, криминал, детектив, BDRemux 1080p GORENOISE.mkv
Format : Matroska
Format version : Version 4 / Version 2
File size : 22.9 GiB
Duration : 1h 25mn
Overall bit rate mode : Variable
Overall bit rate : 38.2 Mbps
Movie name : GORENOISE
Encoded date : UTC 2010-02-22 21:41:31
Writing application : mkvmerge v5.9.0 ('On The Loose') built on Dec 9 2012 15:37:01
Writing library : libebml v1.3.0 + libmatroska v1.4.0
Video #1
ID : 1
Format : VC-1
Format profile : [email protected]
Codec ID : V_MS/VFW/FOURCC / WVC1
Codec ID/Hint : Microsoft
Duration : 1h 25mn
Bit rate : 33.0 Mbps
Width : 1 920 pixels
Height : 1 080 pixels
Display aspect ratio : 16:9
Frame rate mode : Constant
Frame rate : 23.976 fps
Chroma subsampling : 4:2:0
Bit depth : 8 bits
Scan type : Progressive
Compression mode : Lossy
Bits/(Pixel*Frame) : 0.664
Stream size : 19.8 GiB (86%)
Title : GORENOISE
Language : English
Default : Yes
Forced : No
Audio #2
ID : 2
Format : DTS
Format/Info : Digital Theater Systems
Format profile : MA / Core
Codec ID : A_DTS
Duration : 1h 25mn
Bit rate mode : Variable
Bit rate : 1 561 Kbps / 1 510 Kbps
Channel(s) : 6 channels
Channel positions : Front: L C R, Side: L R, LFE
Sampling rate : 48.0 KHz
Bit depth : 24 bits
Compression mode : Lossless / Lossy
Title : Одноголосый закадровый агент смит
Language : Russian
Default : Yes
Forced : No
Audio #3
ID : 3
Format : AC-3
Format/Info : Audio Coding 3
Mode extension : CM (complete main)
Format settings, Endianness : Big
Codec ID : A_AC3
Duration : 1h 25mn
Bit rate mode : Constant
Bit rate : 448 Kbps
Channel(s) : 6 channels
Channel positions : Front: L C R, Side: L R, LFE
Sampling rate : 48.0 KHz
Bit depth : 16 bits
Compression mode : Lossy
Stream size : 275 MiB (1%)
Title : Одноголосый закадровый Сергей Фурман
Language : Russian
Default : No
Forced : No
Audio #4
ID : 4
Format : DTS
Format/Info : Digital Theater Systems
Format profile : MA / Core
Codec ID : A_DTS
Duration : 1h 25mn
Bit rate mode : Variable
Bit rate : 2 425 Kbps / 1 510 Kbps
Channel(s) : 6 channels
Channel positions : Front: L C R, Side: L R, LFE
Sampling rate : 48.0 KHz
Bit depth : 24 bits
Compression mode : Lossless / Lossy
Title : Оригинал
Language : English
Default : No
Forced : No
Text #5
ID : 5
Format : UTF-8
Codec ID : S_TEXT/UTF8
Codec ID/Info : UTF-8 Plain Text
Title : kato_rapture
Language : Russian
Default : No
Forced : No
Text #6
ID : 6
Format : UTF-8
Codec ID : S_TEXT/UTF8
Codec ID/Info : UTF-8 Plain Text
Title : Полные
Language : English
Default : No
Forced : No
Menu
00:00:00.000 : en:00:00:00.000
00:04:34.649 : en:00:04:34.649
00:07:54.683 : en:00:07:54.683
00:13:18.923 : en:00:13:18.923
00:15:43.568 : en:00:15:43.568
00:19:55.653 : en:00:19:55.653
00:26:15.199 : en:00:26:15.199
00:28:50.062 : en:00:28:50.062
00:33:09.696 : en:00:33:09.696
00:36:04.788 : en:00:36:04.788
00:40:01.065 : en:00:40:01.065
00:43:54.423 : en:00:43:54.423
00:46:38.921 : en:00:46:38.921
00:52:31.065 : en:00:52:31.065
00:56:06.530 : en:00:56:06.530
01:02:12.646 : en:01:02:12.646
01:06:23.563 : en:01:06:23.563
01:12:59.041 : en:01:12:59.041
01:17:40.155 : en:01:17:40.155
01:21:45.776 : en:01:21:45.776

Полноразмерный постер

Other forum [Profile] [PM]

Dracula

Longevity: 7 years 6 months

Posts: 11221

Торрент-статистика

Post 12-Jan-2013 01:13 (after 25 minutes)

Топик был перенесен из форума Зарубежное кино (HD Video) в форум Зарубежное кино


Delia
 
Display posts from previous:    
Reply to topic

The time now is: Today 05:11

All times are GMT + 3 Hours



You cannot post new topics in this forum
You cannot reply to topics in this forum
You cannot edit your posts in this forum
You cannot delete your posts in this forum
You cannot vote in polls in this forum
You cannot attach files in this forum
You cannot download files in this forum