Сегодня идет свободное скачивание без начисления Download

Авиценна (1957) SATRip

Ответить на тему
 
Автор
Сообщение

Omen ®

Стаж: 5 лет 10 месяцев

Сообщений: 184329

Торрент-статистика

Пост 11-Янв-2013 23:56

[Цитировать]

-Авиценна (1956) SATRip- Русское название: Авиценна
Год выпуска: 1957
Жанр: Драма, Биография
Описание фильма:
Абу Али Хусейн ибн Абдаллах ибн Сина , или Авице́нна (Афшана близ Бухары, 16 августа 980 года — Хамадан, 18 июня 1037) — средневековый учёный, философ и врач, представитель восточного аристотелизма. Был придворным врачом саманидских эмиров и дайлемитских султанов, некоторое время был визирем в Хамадане. Всего написал более 450 трудов в 29 областях науки, из которых до нас дошли только 274.
Фильм, посвященный философу, врачу, ученому Востока и поэту, жившему в Бухаре в Х веке и известному в Европе под именем Авиценны.
Доп. информация: Изначально фильм был снят в цвете, первый раз восстановлен в 1964, затем - в 1979 году на киностудии им. Горького (уже в черно-белом варианте).
Режиссер: Камил Ярматов
Актеры: Марат Арипов, Тулкун Таджиев, Аббас Бакиров, Мухаметджан Касымов, Раззак Хамраев, Обид Джалилов, Рахим Пирмухамедов, Кудрат Ходжаев, Хикмат Латыпов, Гани Агзамов, Алексей Алексеев
Роли дублировали: Николай Александрович, Владимир Прохоров, Михаил Погоржельский, Алексей Алексеев, Ростислав Плятт...
Сценарий: Виктор Виткович, Сатым Улуг-Заде
Операторы: Грайр Гарибян, Леонид Акимов
Художники: Варшам Еремян, Арсений Клопотовский
Композитор: Муталь Бурханов
Награды: вторая премия за художественное оформление Варшаму Еремяну, поощрительный диплом режиссеру Камилу Ярматову на МКФ в Москве (1958)
Дубляж: киностудии им. Горького
Режиссер дубляжа: Алексей Золотниицкий
Звукорежиссер: Николай Озорнов
Продолжительность: 01:17:27

Видеокодек: Xvid
Битрейт видео: ~1 799 Kbps
Размер кадра: 688х512
Качество видео: SATRip
Аудиокодек: MP3 1 ch
Битрейт аудио: 128 Kbps
Рип взят из сети и оставлен без изменений
Сэмпл: Ссылка

Медиаинфо

Format : AVI
Format/Info : Audio Video Interleave
File size : 1.05 GiB
Duration : 1h 17mn
Overall bit rate : 1 937 Kbps
Director : SATrip by Animat
Writing application : VirtualDubMod 1.5.10.2 (build 2540/release)
Writing library : VirtualDub build 32706/release
Video
ID : 0
Format : MPEG-4 Visual
Format profile : Advanced [email protected]
Format settings, BVOP : 2
Format settings, QPel : No
Format settings, GMC : No warppoints
Format settings, Matrix : Default (MPEG)
Muxing mode : Packed bitstream
Codec ID : XVID
Codec ID/Hint : XviD
Duration : 1h 17mn
Bit rate : 1 799 Kbps
Width : 688 pixels
Height : 512 pixels
Display aspect ratio : 4:3
Frame rate : 25.000 fps
Color space : YUV
Chroma subsampling : 4:2:0
Bit depth : 8 bits
Scan type : Progressive
Compression mode : Lossy
Bits/(Pixel*Frame) : 0.204
Stream size : 997 MiB (93%)
Writing library : XviD 1.1.2 (UTC 2006-11-01)
Audio
ID : 1
Format : MPEG Audio
Format version : Version 1
Format profile : Layer 3
Codec ID : 55
Codec ID/Hint : MP3
Duration : 1h 17mn
Bit rate mode : Constant
Bit rate : 128 Kbps
Channel(s) : 1 channel
Sampling rate : 48.0 KHz
Compression mode : Lossy
Stream size : 70.9 MiB (7%)
Alignment : Aligned on interleaves
Interleave, duration : 40 ms (1.00 video frame)
Interleave, preload duration : 504 ms
Скриншоты:
         
         
Время раздачи: с 10:00 до 24:00
Вне форума [Профиль] [ЛС]
Показать сообщения:    
Ответить на тему

Текущее время: Сегодня 20:41

Часовой пояс: GMT + 3



Вы не можете начинать темы
Вы не можете отвечать на сообщения
Вы не можете редактировать свои сообщения
Вы не можете удалять свои сообщения
Вы не можете голосовать в опросах
Вы не можете прикреплять файлы к сообщениям
Вы не можете скачивать файлы