Today is a free download without charge Download

Эдвард руки-ножницы / Edward Scissorhands (Тим Бёртон / Tim Burton) [ 1990 , США , фэнтези, драма, мелодрама , BDRip 1080p ]

Reply to topic
 
Author
Message

Delia ®

Gender:

Longevity: 10 years

Posts: 1821

Торрент-статистика

Post 11-Jan-2013 21:36

[Quote]

-Эдвард руки-ножницыEdward Scissorhands«The story of an uncommonly gentle man»-- Год выпуска: 1990
Страна: США
Слоган: «The story of an uncommonly gentle man»
Жанр: фэнтези, драма, мелодрама
Продолжительность: 01:44:59
Перевод: Профессиональный (многоголосый, закадровый)
Режиссер: Тим Бёртон / Tim Burton В ролях: Джонни Депп (Edward Scissorhands), Вайнона Райдер (Kim), Дайэнн Уист (Peg), Энтони Майкл Холл (Jim), Кэти Бейкер (Joyce), Роберт Оливери (Kevin), Кончата Феррелл (Helen), Кэролайн Аарон (Marge), Дик Энтони Уильямс (Officer Allen), О-Лан Джонс (Esmeralda), Винсент Прайс (The Inventor), Алан Аркин (Bill)-Описание: Одинокий старый ученый создал человеческое существо. Но не успел доделать его до конца и умер. У сотворенного им молодого человека не хватает рук - вместо них у него нечто вроде ножниц - и он вынужден жить в заброшенном доме в полном одиночестве. Но вот однажды он знакомится с прекрасной девушкой, которая смогла оценить его доброе сердце...-
MPAA: - Детям до 13 лет просмотр не желателен--
Качество: BDRip
Контейнер: MKV
Видео: AVC, 1920x1040 (16:9), 10010 kbps, 23,976 fps, 0,209 bpp
Аудио №1: русский /; AC3 /; 5.1 /; 48 kHz /; 448 kbps /; 16 bit; |MVO . OPT|
Аудио №2: английский /; AC3 /; 3 /; 48 kHz /; 384 kbps /; 16 bit
Субтитры №1: русские
Субтитры №2: английские
Навигация по главам: есть
--

Media Info

General
Unique ID : 244031098077235348481043495236953622614 (0xB796AE0EE68B827486C76CCF3B6EC856)
Complete name : E:\Torrent\Edward Scissorhands.1080p.F-HD.mkv
Format : Matroska
Format version : Version 4 / Version 2
File size : 7.95 GiB
Duration : 1h 44mn
Overall bit rate : 10.8 Mbps
Encoded date : UTC 2010-02-22 21:41:31
Writing application : mkvmerge v5.9.0 ('On The Loose') built on Dec 9 2012 15:37:01
Writing library : libebml v1.3.0 + libmatroska v1.4.0
Video
ID : 1
Format : AVC
Format/Info : Advanced Video Codec
Format profile : [email protected]
Format settings, CABAC : Yes
Format settings, ReFrames : 4 frames
Codec ID : V_MPEG4/ISO/AVC
Duration : 1h 44mn
Bit rate : 10.0 Mbps
Width : 1 920 pixels
Height : 1 040 pixels
Display aspect ratio : 16:9
Frame rate : 23.976 fps
Color space : YUV
Chroma subsampling : 4:2:0
Bit depth : 8 bits
Scan type : Progressive
Bits/(Pixel*Frame) : 0.209
Stream size : 7.18 GiB (90%)
Writing library : x264 core 129 r2230kMod 1cffe9f
Encoding settings : cabac=1 / ref=4 / deblock=1:-2:-2 / analyse=0x3:0x113 / me=umh / subme=10 / psy=1 / fade_compensate=0.00 / psy_rd=1.00:0.10 / mixed_ref=1 / me_range=48 / chroma_me=1 / trellis=2 / 8x8dct=1 / cqm=0 / deadzone=21,11 / fast_pskip=0 / chroma_qp_offset=-3 / threads=6 / lookahead_threads=1 / sliced_threads=0 / nr=0 / decimate=0 / interlaced=0 / bluray_compat=0 / constrained_intra=0 / bframes=9 / b_pyramid=2 / b_adapt=2 / b_bias=0 / direct=3 / weightb=1 / open_gop=0 / weightp=2 / keyint=240 / keyint_min=23 / scenecut=40 / intra_refresh=0 / rc=2pass / mbtree=0 / bitrate=10010 / ratetol=1.0 / qcomp=0.70 / qpmin=0 / qpmax=69 / qpstep=4 / cplxblur=20.0 / qblur=0.5 / ip_ratio=1.40 / pb_ratio=1.30 / aq=2:0.70
Language : English
Default : Yes
Forced : No
Color primaries : BT.709-5, BT.1361, IEC 61966-2-4, SMPTE RP177
Transfer characteristics : BT.709-5, BT.1361
Matrix coefficients : BT.709-5, BT.1361, IEC 61966-2-4 709, SMPTE RP177
Audio #1
ID : 2
Format : AC-3
Format/Info : Audio Coding 3
Mode extension : CM (complete main)
Codec ID : A_AC3
Duration : 1h 44mn
Bit rate mode : Constant
Bit rate : 448 Kbps
Channel(s) : 6 channels
Channel positions : Front: L C R, Side: L R, LFE
Sampling rate : 48.0 KHz
Bit depth : 16 bits
Compression mode : Lossy
Stream size : 336 MiB (4%)
Language : Russian
Default : Yes
Forced : No
Audio #2
ID : 3
Format : AC-3
Format/Info : Audio Coding 3
Mode extension : CM (complete main)
Codec ID : A_AC3
Duration : 1h 44mn
Bit rate mode : Constant
Bit rate : 384 Kbps
Channel(s) : 3 channels
Channel positions : Front: L C R
Sampling rate : 48.0 KHz
Bit depth : 16 bits
Compression mode : Lossy
Stream size : 288 MiB (4%)
Language : English
Default : No
Forced : No
Text #1
ID : 4
Format : UTF-8
Codec ID : S_TEXT/UTF8
Codec ID/Info : UTF-8 Plain Text
Language : Russian
Default : No
Forced : No
Text #2
ID : 5
Format : UTF-8
Codec ID : S_TEXT/UTF8
Codec ID/Info : UTF-8 Plain Text
Language : English
Default : No
Forced : No
Menu
00:00:00.000 : en:1. Main Titles
00:02:45.999 : en:2. A Story About Snow
00:05:19.110 : en:3. Avon Calling
00:12:25.620 : en:4. Peg Meets Edward
00:16:36.621 : en:5. Local Gossip
00:28:32.502 : en:6. Edward's Talent
00:31:27.302 : en:7. The Neighbors
00:33:29.007 : en:8. The Inventor
00:35:29.669 : en:9. Backyard Barbecue
00:38:15.877 : en:10. Remembering
00:39:48.678 : en:11. Kim
00:45:04.410 : en:12. Show and Tell
00:47:38.856 : en:13. More Talents
00:54:38.567 : en:14. Edward on TV
00:56:57.539 : en:15. A Beauty Salon
01:01:18.800 : en:16. The Need for Money
01:04:40.043 : en:17. Drop Your Weapons
01:09:22.450 : en:18. A Ruined Reputation
01:15:51.338 : en:19. The Ice Angel
01:19:05.157 : en:20. Edward Gets Mad
01:24:57.676 : en:21. A Christmas Past
01:27:06.555 : en:22. Jim's Revenge
01:37:04.360 : en:23. The Story's End
01:39:46.814 : en:24. End Titles

Знаете ли Вы, что...

  • Специально для фильма Джонни Депп похудел на 25 фунтов (примерно 11,3 килограмм).
  • На роль Эдварда рассматривались кандидатуры Тома Круза и Роберта Дауни младшего.
  • В данном фильме Винсент Прайс сыграл свою последнюю роль.
  • За весь фильм Джонни Депп говорит 169 слов.
  • Во время съёмок сцены, в которой Эдвард бежит обратно к своему дому, Джонни Депп потерял сознание.
  • Во время съёмок сцены, где умирает персонаж Винсента Прайса, актер потерял сознание. Тим Бёртон решил включить в окончательный монтаж именно данный дубль.
  • Самый длинный монолог, произносимый Джонни Деппом в картине, состоит из 16 слов.
  • Идеей для создания картины послужил рисунок, который Тим Бёртон нарисовал еще будучи подростком. А по первоначальному замыслу этот кинофильм должен был стать музыкальным.
  • Съемки проводились в нескольких городах в штате Флорида.
  • Бёртон заявил, что Эдвард для него «был чем-то вроде любимой собаки».
  • Во время съемок «Эдварда - руки-ножницы» Тим Бёртон параллельно снимал документальный фильм «Разговоры с Винсентом». Фильм не был закончен по причине смерти главного героя - культового актера Винсента Прайса.
  • В конце 2005 года скандально известный театральный режиссер Мэтью Борн поставил на музыку Дэнни Эльфмана, балет «Эдвард - руки-ножницы», основой для которого послужил фильм Бёртона. Композитор фильма Дэнни Эльфман дописал ряд музыкальных отрывков к балету.
  • Прообразом городка, в котором появляется Эдвард, послужил родной город режиссёра Бербанк (Калифорния) США.


Скриншоты

     
     
     
 

_________________
Человек – это канат, натянутый между животным и сверхчеловеком, – канат над пропастью.
В человеке ценно то, что он мост, а не цель. Фридрих Ницше
Other forum [Profile] [PM]
Similar theme
Forum Topic Author Torrent Replies Last Post
./templates/default/images/folder_dl.gif Зарубежное кино Изгой-один: Звёздные войны. Истории / Rogue One: A Star Wars Story (Гарет Эдвардс) [2016 г., фантастика, боевик, приключения, BDRip 1080p] DUB | Чистый звук Theseus
1 | 0

0 | 7977

8

2017-03-22 11:05
Theseus Latest
Display posts from previous:    
Reply to topic

The time now is: Today 09:58

All times are GMT + 3 Hours



You cannot post new topics in this forum
You cannot reply to topics in this forum
You cannot edit your posts in this forum
You cannot delete your posts in this forum
You cannot vote in polls in this forum
You cannot attach files in this forum
You cannot download files in this forum