Today is a free download without charge Download

Heart - Live Fanatic [2012, Hard Rock/ AOR, HDTV 1080p]

Reply to topic
 
Author
Message

Omen ®

Longevity: 8 years 3 months

Posts: 181087

Торрент-статистика

Post 11-Jan-2013 18:36

[Quote]

Heart
Live Fanatic
- Жанр: Hard Rock/ AOR
Продолжительность: 1:11:47
Год выпуска: 2012
Описание: Location: Windsor, Ontario, Canada
Venue: Caesar's Coloseum
Date: July 28th, 2012
DVB: AXS TV

SETLIST:
01. In The Light (Led Zeppelin intro music)
02. Fanatic
03. Heartless
04. What About Love
05. Mashallah
06. Even It Up
07. 59 Crunch
08. Straight On
09. Dog & Butterfly
10. Walkin' Good
11. These Dreams
12. Alone
13. Dear Old America
14. Barracuda

Качество: HDTV 1080i
Контейнер: MKV
Видео кодек: MPEG2
Аудио кодек: AC3
Видео: MPEG, 1920x1080, 12,1 mbps, 29,970 fps
Аудио: AC3, 384 kbps, 48 kHz, 2 ch
Аудио 2: MP2, 256 kbps, 48 kHz, 2 ch

Отчёт MediaInfo / BDInfo

ОбщееУникальный идентификатор : 173186137344876057916816011820185255312 (0x824A6FD13DE35C08B043FEB9C2197D90)Полное имя : H:\CAPTURE\Heart - Windsor, Ontario, Caesar's Coloseum [HDTV 1080p].mkvФормат : MatroskaВерсия формата : Version 4 / Version 2Размер файла : 6,50 ГбайтПродолжительность : 1 ч. 11 м.Общий поток : 13,0 Мбит/секДата кодирования : UTC 2010-02-22 21:41:31Программа кодирования : mkvmerge v5.9.0 ('On The Loose') built on Dec 9 2012 15:37:01Библиотека кодирования : libebml v1.3.0 + libmatroska v1.4.0
ВидеоИдентификатор : 1Формат : MPEG VideoВерсия формата : Version 2Профиль формата : [email protected]Параметр BVOP формата : НетПараметр матрицы формата : По умолчаниюИдентификатор кодека : V_MPEG2Идентификатор кодека/Информация : MPEG 1 or 2 VideoПродолжительность : 1 ч. 11 м.Битрейт : 12,1 Мбит/секМаксимальный битрейт : 19,7 Мбит/секШирина : 1920 пикселейВысота : 1080 пикселейСоотношение сторон : 16:9Режим частоты кадров : ПостоянныйЧастота кадров : 29,970 кадров/секЦветовое пространство : YUVСубдискретизация насыщенности : 4:2:0Битовая глубина : 8 битТип развёртки : ПрогрессивнаяМетод сжатия : С потерямиБит/(Пиксели*Кадры) : 0.194Размер потока : 6,05 Гбайт (93%)Default : ДаForced : Нет
Аудио #1Идентификатор : 2Формат : AC-3Формат/Информация : Audio Coding 3Расширение режима : CM (complete main)Параметр Endianness формата : BigРежим смешивания : Header strippingИдентификатор кодека : A_AC3Продолжительность : 1 ч. 11 м.Вид битрейта : ПостоянныйБитрейт : 384 Кбит/секКаналы : 2 каналаРасположение каналов : Front: L RЧастота : 48,0 КГцБитовая глубина : 16 битМетод сжатия : С потерямиРазмер потока : 197 Мбайт (3%)Заголовок : AC3Язык : EnglishDefault : ДаForced : Нет
Аудио #2Идентификатор : 3Формат : MPEG AudioВерсия формата : Version 1Профиль формата : Layer 2Режим смешивания : Header strippingИдентификатор кодека : A_MPEG/L2Идентификатор кодека/Подсказка : MP2Продолжительность : 1 ч. 11 м.Вид битрейта : ПостоянныйБитрейт : 256 Кбит/секКаналы : 2 каналаЧастота : 48,0 КГцМетод сжатия : С потерямиРазмер потока : 131 Мбайт (2%)Заголовок : MP2Язык : EnglishDefault : НетForced : Нет

Скриншоты

Other forum [Profile] [PM]
Display posts from previous:    
Reply to topic

The time now is: Today 04:10

All times are GMT + 3 Hours



You cannot post new topics in this forum
You cannot reply to topics in this forum
You cannot edit your posts in this forum
You cannot delete your posts in this forum
You cannot vote in polls in this forum
You cannot attach files in this forum
You cannot download files in this forum