Today is a free download without charge Download

Золотой запас (1-24 серии из 24) (2012) DVB

Reply to topic
 
Author
Message

Omen ®

Longevity: 8 years 11 months

Posts: 181086

Торрент-статистика

Post 11-Jan-2013 16:23

[Quote]

-Золотой запас (1-24 серии из 24) (2012) DVB - Русское название: Золотой запас
Год выпуска: 2012
Производство: Россия, ООО «Леан-М», ООО ПЦ «Браво» по заказу НТВ
Жанр: боевик, драма, криминал

Премьера: 13 августа 2012 (НТВ)
Режиссер: Мурад Алиев, Дмитрий Матов
Актеры: Михаил Мамаев, Лилия Мэй, Михаил Хмуров, Александр Зельский, Игорь Волков, Сейдулла Молдаханов, Екатерина Чебышева, Илья Оболонков, Андрей Харыбин, Роман Синицын, Дмитрий Калистратов, Юрий Назаров, Игорь Савочкин, Сергей Беляев, Ольга Хохлова, Юрий Гурьев, Дмитрий Скачков, Андрей Сорокин (II), Алексей Нестеров, Андрюс Паулавичюс, Константин Адаев, Роман Калькаев, Бесо Гатаев, Елена Шамова, Фаридуншо Рахматуллоев, Александр Андриенко, Виталий Махов, Андрей Заводюк, Михаил Самохвалов, Сергей Кагаков, Роман Гредин, Сергей Самородов, Михаил Колядин, Поля Полякова
Описание фильма:
Капитан погранвойск в отставке Сергей Бронников возвращается в родной сибирский городок, чтобы осесть там навсегда. Его отец, геолог на пенсии, делится с сыном тайной. Оказывается, он нашел богатейшую золотую жилу! К несчастью, об этом узнает «крестный отец» всего города, владелец нелегального золотого рудника Мезенцев. Старый геолог умирает под пытками, а его сына похищают и увозят в тайгу на рудник, чтобы выпытать у него дорогу к золоту. Так Сергей становится одним из рабов на нелегальных рудниках — одним из тех, кого никто не ищет и чья жизнь ничего не стоит. Все, что он успевает перед похищением, — это сообщить о смерти отца своему бывшему сослуживцу, офицеру ФСБ Стасу Шеремету. Тот тут же отправляется на помощь другу. Ему предстоит самому стать подозреваемым, попасть в розыск, исчезнуть и пройти через тайгу, чтобы найти и выручить бывшего товарища-однополчанина.
Продолжительность: серия ~ 00:41
Качество видео: DVB
Видеокодек: MPEG2
Формат: MPEG
Битрейт видео: ~5140 kbps avg
Размер кадра: 720x576**768х576 (4:3), 25.000 fps
Аудиокодек: MPEG Audio Layer 2
Аудио: 48 kHz, 2 ch, ~192 kbps avg
Субтитры: отсутствуют

MediaInfo:

Формат : MPEG-PS
Размер файла : 1,59 Гбайт
Продолжительность : 41 м.
Режим общего битрейта : Переменный
Общий поток : 5442 Кбит/сек
Библиотека кодирования : (c) 1998-2010 Womble Multimedia, Inc. / MPEG Video Wizard DVD 5.0.0.114
Видео
Идентификатор : 224 (0xE0)
Формат : MPEG Video
Версия формата : Version 2
Профиль формата : [email protected]
Параметр BVOP формата : Да
Параметр матрицы формата : Выборочная
Параметр GOP формата : M=3, N=24
Продолжительность : 41 м.
Вид битрейта : Переменный
Битрейт : 5142 Кбит/сек
Максимальный битрейт : 15,0 Мбит/сек
Ширина : 720 пикселей
Высота : 576 пикселей
Соотношение сторон : 4:3
Частота кадров : 25,000 кадров/сек
Стандарт вещания : PAL
Цветовое пространство : YUV
Субдискретизация насыщенности : 4:2:0
Битовая глубина : 8 бит
Тип развёртки : Чересстрочная
Порядок развёртки : Верхнее поле первое
Метод сжатия : С потерями
Бит/(Пиксели*Кадры) : 0.496
Размер потока : 1,50 Гбайт (94%)
Библиотека кодирования : (c) 1998-2010 Womble Multimedia, Inc. / MPEG Video Wizard DVD 5.0.0.114
Аудио
Идентификатор : 192 (0xC0)
Формат : MPEG Audio
Версия формата : Version 1
Профиль формата : Layer 2
Продолжительность : 41 м.
Вид битрейта : Постоянный
Битрейт : 192 Кбит/сек
Каналы : 2 канала
Частота : 48,0 КГц
Метод сжатия : С потерями
Размер потока : 57,4 Мбайт (4%)
Скриншоты:
         
         
[url=/forum/viewtopic.php?t=534554]Золотой запас [24 серии из 24] (2012) SATRip[/url]Время раздачи: 24/7
Other forum [Profile] [PM]
Similar theme
Forum Topic Author Torrent Replies Last Post
./templates/default/images/folder_dl.gif Современная проза, классика, поэзия Мулдашев Эрнст - Пропавшее золото Леваневского [2015, MP3, 96 kbps] DED
0 | 1

0 | 1195

0

2015-03-23 10:38
DED Latest
Display posts from previous:    
Reply to topic

The time now is: Today 13:46

All times are GMT + 3 Hours



You cannot post new topics in this forum
You cannot reply to topics in this forum
You cannot edit your posts in this forum
You cannot delete your posts in this forum
You cannot vote in polls in this forum
You cannot attach files in this forum
You cannot download files in this forum