Today is a free download without charge Download

Моя граница (серии 1-12 из 12)(2002) DVDRip

Reply to topic
 
Author
Message

Omen ®

Longevity: 8 years 11 months

Posts: 181086

Торрент-статистика

Post 11-Jan-2013 15:32

[Quote]

-Моя граница (серии 1-12 из 12)(2002) DVDRip- Русское название: Моя граница
Год выпуска: 2002
Жанр: Приключения, Военный, Боевик

Режиссер: Иван Соловов
Актеры: Антон Борисов, Данила Перов, Ольга Зубкова, Екатерина Крупенина, Кирилл Козаков, Аристарх Ливанов, Раиса Рязанова, Надежда Бутырцева, Александр Фатюшин, Олег Вавилов, Геннадий Назаров, Рубен Симонов (II), Владимир Епископосян, Евгений Леонов-Гладышев, Юрий Цурило, Борис Хмельницкий, Михаил Мамаев, Сергей Греков, Павел Ремезов, Саид Дашук-Нигматулин, Сергей Апрельский, Александр Числов, Виталий Любский, Дарья Егорычева, Ирина Дериенко, Вячеслав Манучаров, Олег Морозов, Олег Мосалев, Кирилл Полухин, Руслан Кулешов, Михаил Лукашов, Всеволод Хабаров, Ульяна Лаптева, Георгий Дронов, Юрий Тарасов, Владимир Майсурадзе
Описание фильма:
Выпускники Московского Пограничного училища Александр Упоров и Сергей Нестеров отправляются служить в самые "горячие" точки России: Александр – на Север, Сергей – на Кавказ. Их дружбу осложняет тот факт, что оба они влюблены в одну и ту же девушку…
Продолжительность: 12 x ~ 00:46:00
Качество видео: DVDRip
Видеокодек: Xvid
Битрейт видео: ~1234 Кбит/с
Размер кадра: 720x384
Аудиокодек: AC3 2.0
Битрейт аудио: 192 Кбит/с

mediainfo

Формат : AVI
Формат/Информация : Audio Video Interleave
Размер файла : 499 Мбайт
Продолжительность : 44 м.
Общий поток : 1581 Кбит/сек
Программа кодирования : VirtualDubMod 1.5.4.1 (build 2178/release)
Библиотека кодирования : VirtualDub build 30091/release
Видео
Идентификатор : 0
Формат : MPEG-4 Visual
Профиль формата : Advanced [email protected]
Параметр BVOP формата : 1
Параметр QPel формата : Нет
Параметр GMC формата : Без точки перехода
Параметр матрицы формата : Выборочная
Идентификатор кодека : XVID
Идентификатор кодека/Подсказка : XviD
Продолжительность : 44 м.
Битрейт : 1234 Кбит/сек
Ширина : 720 пикселей
Высота : 384 пикселя
Соотношение сторон : 1,85:1
Частота кадров : 25,000 кадров/сек
Цветовое пространство : YUV
Субдискретизация насыщенности : 4:2:0
Битовая глубина : 8 бит
Тип развёртки : Прогрессивная
Метод сжатия : С потерями
Бит/(Пиксели*Кадры) : 0.199
Размер потока : 436 Мбайт (87%)
Библиотека кодирования : XviD 1.2.0.dev47 (UTC 2006-11-01)
Аудио
Идентификатор : 1
Формат : AC-3
Формат/Информация : Audio Coding 3
Расширение режима : CM (complete main)
Параметр Endianness формата : Big
Идентификатор кодека : 2000
Продолжительность : 44 м.
Вид битрейта : Постоянный
Битрейт : 192 Кбит/сек
Каналы : 2 канала
Расположение каналов : Front: L R
Частота : 48,0 КГц
Битовая глубина : 16 бит
Метод сжатия : С потерями
Задержка видео : 8 мс.
Размер потока : 60,7 Мбайт (12%)
Выравнивание : Разделение по промежуткам
Продолжительность промежутка : 40 мс. (1,00 видеокадр)
Время предзагрузки промежутка : 500 мс.
Скриншоты:
       
Время раздачи: 24/7
Other forum [Profile] [PM]
Display posts from previous:    
Reply to topic

The time now is: Today 13:34

All times are GMT + 3 Hours



You cannot post new topics in this forum
You cannot reply to topics in this forum
You cannot edit your posts in this forum
You cannot delete your posts in this forum
You cannot vote in polls in this forum
You cannot attach files in this forum
You cannot download files in this forum