Today is a free download without charge Download

Бывшая / Колишня [61-115 серии из 115] (2008) SATRip

Reply to topic
 
Author
Message

Omen ®

Longevity: 9 years 1 month

Posts: 181086

Торрент-статистика

Post 11-Jan-2013 13:24

[Quote]

-Бывшая / Колишня [61-115 серии из 115] (2008) SATRip- Русское название: Бывшая
Оригинальное название: Колишня
Производство: Украина / Амедиа
Год выпуска: 2008
Жанр: Драма
Субтитры: Украинский (не отключаемые)
Возраст: 16+ |зрителям, достигшим 16 лет|
Перевод: Не требуется, русский

Трейлер
Дата российской премьеры: 5 ноября 2007
Режиссер: Лев Сомов, Ансар Халлилулин
Актеры: Виктория Богатырева, Виктория Смачелюк, Анна Сырбу, Александр Арсентьев, Александр Никитин, Ольга Фадеева, Михаил Кукуюк, Наталья Ефремова, Татьяна Печенкина, Константин Стрельников
Описание фильма:
В центре сюжета – скромная молодая женщина Анна Полянская. Анна и её муж Леонид работают в главном офисе достаточно преуспевающей косметической компании «Glamour Co», которая, однако, переживает не лучшие времена. Жизнь у супружеской четы Полянских размеренная и, как кажется самой героине, вполне счастливая. Но идиллия заканчивается, когда в день своего тридцатилетия Анна узнает о том, что у мужа адюльтер с её начальницей. Как говорится, беда не приходит одна. Попав под горячую руку нового директора, Анна близка к увольнению с любимой работы. Семейное счастье и карьера героини рушатся, и ей приходится выстраивать свою жизнь с нуля. В этом героине помогает ее второе я – более решительная, чем сама Полянская – Яна. Пойдет ли Анна на развод с любимым мужем и как сложится ее дальнейшая карьера?
Продолжительность: 55 х ~ 00:43:00
Качество видео: SATRip
Видеокодек: Xvid
Битрейт видео: ~1144 Кбит/сек
Размер кадра: 640x480
Аудиокодек: MP3 2ch
Битрейт аудио: 128 Кбит/сек

MediaInfo:

Общее
Полное имя : Bivshaja.2008\Bivshaja.(061.serii.iz.115).2008.XviD.SATRip.avi
Формат : AVI
Формат/Информация : Audio Video Interleave
Размер файла : 389 Мбайт
Продолжительность : 42 м.
Общий поток : 1285 Кбит/сек
Режиссёр : created.with.SUPER(C).v2010.bld.38
Программа кодирования : SUPER(C) - by eRightSoft
Видео
Идентификатор : 0
Формат : MPEG-4 Visual
Профиль формата : Advanced [email protected]
Параметр BVOP формата : 2
Параметр QPel формата : Нет
Параметр GMC формата : Без точки перехода
Параметр матрицы формата : Default (MPEG)
Идентификатор кодека : XVID
Идентификатор кодека/Подсказка : XviD
Продолжительность : 42 м.
Битрейт : 1144 Кбит/сек
Ширина : 640 пикселей
Высота : 480 пикселей
Соотношение сторон : 4:3
Соотношение сторон в оригинале : 4:3
Частота кадров : 25,000 кадров/сек
Цветовое пространство : YUV
Субдискретизация насыщенности : 4:2:0
Битовая глубина : 8 бит
Тип развёртки : Прогрессивная
Метод сжатия : С потерями
Бит/(Пиксели*Кадры) : 0.149
Размер потока : 346 Мбайт (89%)
Библиотека кодирования : XviD 1.1.2 (UTC 2006-11-01)
Аудио
Идентификатор : 1
Формат : MPEG Audio
Версия формата : Version 1
Профиль формата : Layer 3
Идентификатор кодека : 55
Идентификатор кодека/Подсказка : MP3
Продолжительность : 42 м.
Вид битрейта : Постоянный
Битрейт : 128 Кбит/сек
Каналы : 2 канала
Частота : 48,0 КГц
Метод сжатия : С потерями
Задержка видео : 40 мс.
Размер потока : 38,8 Мбайт (10%)
Выравнивание : Соединение по промежуткам
Продолжительность промежутка : 24 мс. (0,60 видеокадр)
Время предзагрузки промежутка : 504 мс.

Как скачать отдельный файл или докачать пропущенные файлы - подробно:

Чтобы скачать одну серию, сначала необходимо, чтобы Ваш клиент (я объясняю на примере uTorrent) при открытии торрента показывал Вам содержимое торрента. Для этого в настройках Вашего клиента во вкладке Интерфейс надо найти слова При добавлении торрента и ниже около слов Отображать содержимое торрента в маленьком окошке поставить галочку. Потом нажать Применить и ОК.
После этого при открытии торрента Вашим клиентом сначала откроется окошко с содержимым торрента, где Вы увидите все файлы, содержащиеся в этом торренте. Напротив каждого файла в маленьком окошке будет стоять галочка, которую Вы можете убрать, если данный файл Вам качать не нужно. Оставляете галочки только напротив тех файлов, которые Вам нужно скачать.
Если в торренте файлов много, а нужен только один, то можно воспользоваться предложением Отменить всё, находящимся справа вверху над содержимым торрента в отдельном окошке. При нажатии на это окошко исчезают все галочки напротив всех файлов. Осталось только найти нужный файл, поставить в маленьком окошке напротив него галочку и нажать ОК. После того, как скачивание закончится (100%),
Вы получите папку, в которой будет один нужный Вам файл.
Скриншоты:
       
       
Other forum [Profile] [PM]
Display posts from previous:    
Reply to topic

The time now is: Today 23:22

All times are GMT + 3 Hours



You cannot post new topics in this forum
You cannot reply to topics in this forum
You cannot edit your posts in this forum
You cannot delete your posts in this forum
You cannot vote in polls in this forum
You cannot attach files in this forum
You cannot download files in this forum