Today is a free download without charge Download

Паутина 6 (1-4 серии из 16) (2012) DVB [Обновляемая]

Reply to topic
 
Author
Message

Omen ®

Longevity: 8 years 11 months

Posts: 181086

Торрент-статистика

Post 11-Jan-2013 11:16

[Quote]

-Паутина 6 (1-4 серии из 16) (2012) DVB [Обновляемая]- Русское название: Паутина 6
Год выпуска: 2012
Производство: Россия, Форвард-Фильм
Жанр: детектив

Премьера: 9 января 2013 (НТВ)
Режиссер: Андрей Хрулев
Актеры: Юлия Селиванова, Ника Балина, Янина Когут, Анна Куркова, Александр Денисов, Андрей Муравьёв, Ангелина Притуманова, Александр Баринов, Александра Булычёва, Олег Харитонов, Олег Филипчик, Маргарита Иванова-Донская, Валерий Новиков, Николай Зазуля, Наталья Дворецкая, Евгений Галушко, Анна Карышева
Описание фильма:
Паутина криминальных связей становится больше. С ней продолжает борьбу начальник убойного отдела майор Фёдор Туманов. В новом сезоне Туманов с капитаном Петром Грековым будут разгадывать ещё более изощрённые криминальные загадки. Например, в одной из них фигурирует чёрный тюльпан, что был в букете, который оказался на месте очередного преступления. Туманову кажется всё это подозрительным: чёрный тюльпан уж слишком контрастирует с нежными белыми розами. Греков считает, что Туманов отстал от жизни, ведь сейчас в нынешнем гламурном обществе нет никаких правил. Нашим операм придётся выяснить, что это: «гламур и дизигн» от современных флористов или атрибут изощренных методов преступника?
Продолжительность: серия ~ 00:46
Качество видео: DVB
Видеокодек: MPEG2
Формат: MPEG
Битрейт видео: ~5142 kbps avg
Размер кадра: 720x576**768х576 (4:3), 25.000 fps
Аудиокодек: MPEG Audio Layer 2
Аудио: 48 kHz, 2 ch, ~192 kbps avg
Субтитры: отсутствуют

MediaInfo:

Формат : MPEG-PS
Размер файла : 788 Мбайт
Продолжительность : 20 м.
Режим общего битрейта : Переменный
Общий поток : 5442 Кбит/сек
Библиотека кодирования : (c) 1998-2012 Womble Multimedia, Inc. / MPEG Video Wizard DVD 5.0.1.100 (03/2011)
Видео
Идентификатор : 224 (0xE0)
Формат : MPEG Video
Версия формата : Version 2
Профиль формата : [email protected]
Параметр BVOP формата : Да
Параметр матрицы формата : Выборочная
Параметр GOP формата : M=3, N=26
Продолжительность : 20 м.
Вид битрейта : Переменный
Битрейт : 5142 Кбит/сек
Максимальный битрейт : 15,0 Мбит/сек
Ширина : 720 пикселей
Высота : 576 пикселей
Соотношение сторон : 4:3
Частота кадров : 25,000 кадров/сек
Стандарт вещания : PAL
Цветовое пространство : YUV
Субдискретизация насыщенности : 4:2:0
Битовая глубина : 8 бит
Тип развёртки : Чересстрочная
Порядок развёртки : Верхнее поле первое
Метод сжатия : С потерями
Бит/(Пиксели*Кадры) : 0.496
Размер потока : 745 Мбайт (94%)
Библиотека кодирования : (c) 1998-2012 Womble Multimedia, Inc.
Аудио
Идентификатор : 192 (0xC0)
Формат : MPEG Audio
Версия формата : Version 1
Профиль формата : Layer 2
Продолжительность : 20 м.
Вид битрейта : Постоянный
Битрейт : 192 Кбит/сек
Каналы : 2 канала
Частота : 48,0 КГц
Метод сжатия : С потерями
Размер потока : 27,8 Мбайт (4%)
Скриншоты:
         
         
Other forum [Profile] [PM]
Display posts from previous:    
Reply to topic

The time now is: Today 12:40

All times are GMT + 3 Hours



You cannot post new topics in this forum
You cannot reply to topics in this forum
You cannot edit your posts in this forum
You cannot delete your posts in this forum
You cannot vote in polls in this forum
You cannot attach files in this forum
You cannot download files in this forum