Today is a free download without charge Download

Олег Верещагин | Воспитание Воина (2011) DVDRip

Reply to topic
 
Author
Message

sashau ®

Gender:

Longevity: 8 years 9 months

Posts: 3497

Торрент-статистика

Post 11-Jan-2013 08:19

[Quote]

Олег Верещагин | Воспитание Воина
- Автор: Олег Николаевич Верещагин
Русское название: Воспитание Воина
Год выпуска: 2011
Страна: Россия
Исполнитель: Вячеслав Есиков
Жанр: Образовательный
Продолжительность: 00:53:31
Перевод: Не требуется
Язык: Русский
Описание: «Трусость, ставшая чуть ли не органичной частью характера большинства потомков бойцов Куликова поля, Смоленска, Полтавы, Бородина, Шипки, Курска и Кандагара. И не только детей, но и взрослых.
Но эта трусость возникла не просто так. Она умело привита, заботливо выращена и тщательно культивирована».
Качество: DVDRip
Формат: AVI
Видео кодек: XviD
Аудио кодек: MP3
Видео: 640x360 (1.78:1), 23.976 fps, DivX Codec 4.x ~31 kbps avg, 0.01 bit/pixel
Аудио: 44.100 kHz, MPEG Layer 3, 2 ch, ~128.00 kbps avg

Продолжение описания

Как? Через постулаты современной психологии и педагогики:
ПЕРВОЕ
. Изначальность и первоочерёдность прав ребёнка.
ВТОРОЕ. Демонизация слова «долг» как калечащего «свободную волю» и «ранимую детскую психику».
ТРЕТЬЕ. Уравнивание в правах ребёнка и взрослого.
ЧЕТВЁРТОЕ. Максимальное потакание прихотям (даже нежеланиям) детей, в которых видится некое «самовыражение» и «саморазвитие» личности.
ПЯТОЕ. Воспитание через внушение чувства своей неповторимости, чувства нигилистического индивидуализма.
ШЕСТОЕ. Разработка темы толерантности к происходящему вокруг.
СЕДЬМОЕ. Отказ от наказаний из-за их «жестокости».
Видео-статья будет интересна тем, кто хочет воспитать своих детей настоящими Людьми...

MediaInfo

General
Complete name : D:\antigenocid\vospitanie_voina_full.avi
Format : AVI
Format/Info : Audio Video Interleave
File size : 66.0 MiB
Duration : 53mn 32s
Overall bit rate : 172 Kbps
Writing application : Lavf52.32.0
Video
ID : 0
Format : MPEG-4 Visual
Format profile : [email protected]
Format settings, BVOP : No
Format settings, QPel : No
Format settings, GMC : No warppoints
Format settings, Matrix : Default (H.263)
Codec ID : DIVX
Codec ID/Info : Project Mayo
Codec ID/Hint : DivX 4
Duration : 53mn 31s
Bit rate : 32.5 Kbps
Width : 640 pixels
Height : 360 pixels
Display aspect ratio : 16:9
Frame rate : 23.976 fps
Color space : YUV
Chroma subsampling : 4:2:0
Bit depth : 8 bits
Scan type : Progressive
Compression mode : Lossy
Bits/(Pixel*Frame) : 0.006
Stream size : 12.4 MiB (19%)
Writing library : Lavc52.22.3
Audio
ID : 1
Format : MPEG Audio
Format version : Version 1
Format profile : Layer 3
Mode : Joint stereo
Mode extension : MS Stereo
Codec ID : 55
Codec ID/Hint : MP3
Duration : 53mn 32s
Bit rate mode : Constant
Bit rate : 128 Kbps
Channel(s) : 2 channels
Sampling rate : 44.1 KHz
Compression mode : Lossy
Stream size : 49.0 MiB (74%)
Alignment : Aligned on interleaves
Interleave, duration : 26 ms (0.63 video frame)
Writing library : LAME3.98.2
Скриншоты
           
Other forum [Profile] [PM]
Display posts from previous:    
Reply to topic

The time now is: Today 16:25

All times are GMT + 3 Hours



You cannot post new topics in this forum
You cannot reply to topics in this forum
You cannot edit your posts in this forum
You cannot delete your posts in this forum
You cannot vote in polls in this forum
You cannot attach files in this forum
You cannot download files in this forum