Today is a free download without charge Download

Не было бы счастья / Серии: 4 из 4 (Алексей Праздников) [2012, мелодрама, DVDRip]

Reply to topic
 
Author
Message

Omen ®

Longevity: 9 years 1 month

Posts: 181086

Торрент-статистика

Post 11-Jan-2013 00:05

[Quote]

Не было бы счастья
Год выпуска: 2012
Производство: Грин-фильм, Приор Продакшн
Жанр: мелодрама
Продолжительность: 00:52:00
Субтитры: Нет--Режиссёр: Алексей Праздников--В ролях: Алексей Барабаш, Наталия Антонова, Влада Макейчик, Елена Купрашевич, Андрей Кузнецов, Регина Щукина, Константин Воробьёв--Описание: Алена может считаться вполне успешной дамой: умная, красивая, с хорошей работой в финансовой компании, квартирой в центре Москвы, надежным непьющим гражданским мужем Олегом. Счастье близко, но есть проблема: Олег категорически против детей. Однажды компания Алены устраивала корпоративную вечеринку. На нее, как водится, пригласили «звезду». Вадим, сорокалетний певец, развлекал публику любимыми хитами. Между ним и Аленой вспыхнул роман. Они провели безумную, страстную ночь. Такого в жизни Алены еще не было. Алена, жившая со спокойным, рассудительным Олегом, никогда ему не изменявшая, была просто ошеломлена. Ради Алены Вадим готов развестись с «давно-не-любимой» женой, завести вместе детей и бросить к ее ногам весь мир. Алена стоит перед сложным выбором - спокойная жизнь с Олегом, но детей в ней не будет, или «звездная» жизнь с Вадимом со всеми ее сложностями...-Сэмпл: http://multi-up.com/750196--Качество: DVDRip
Формат: AVI
Видео кодек: XviD
Аудио кодек: AC3
Видео: MPEG4, XviD, 720x400 (16/9), 25.000 fps, 1 678 Kbps (0.233 bit/pixel)
Аудио: AC-3, 48.0 KHz, 2 ch, 192 Kbps, CBR

Реклама отсутствует!

MI

General
Complete name : I:\ЗАКАЧКИ\Ne.bylo.by.schastja.2012.O.DVDRip\Ne.bylo.by.schastja.seriya.1iz4.2012.O.DVDRip.IRONCLUB.avi
Format : AVI
Format/Info : Audio Video Interleave
File size : 700 MiB
Duration : 52mn 2s
Overall bit rate : 1 880 Kbps
Movie name : Ne.bylo.by.schastja.seriya.1iz4.2012.O.DVDRip.IRONCLUB
Director : IRONCLUB
Writing application : VirtualDubMod 1.5.10.3 | www.virtualdub-fr.org || (build 2550/release)
Video
ID : 0
Format : MPEG-4 Visual
Format profile : Advanced [email protected]
Format settings, BVOP : 2
Format settings, QPel : No
Format settings, GMC : No warppoints
Format settings, Matrix : Custom
Codec ID : XVID
Codec ID/Hint : XviD
Duration : 52mn 2s
Bit rate : 1 678 Kbps
Width : 720 pixels
Height : 400 pixels
Display aspect ratio : 16:9
Frame rate : 25.000 fps
Color space : YUV
Chroma subsampling : 4:2:0
Bit depth : 8 bits
Scan type : Progressive
Compression mode : Lossy
Bits/(Pixel*Frame) : 0.233
Stream size : 625 MiB (89%)
Writing library : XviD 1.2.1 (UTC 2008-12-04)
Audio
ID : 1
Format : AC-3
Format/Info : Audio Coding 3
Mode extension : CM (complete main)
Codec ID : 2000
Duration : 52mn 2s
Bit rate mode : Constant
Bit rate : 192 Kbps
Channel(s) : 2 channels
Channel positions : Front: L R
Sampling rate : 48.0 KHz
Bit depth : 16 bits
Compression mode : Lossy
Stream size : 71.5 MiB (10%)
Alignment : Split accross interleaves
Interleave, duration : 40 ms (1.00 video frame)
Interleave, preload duration : 500 ms

Скриншоты



Other forum [Profile] [PM]
Display posts from previous:    
Reply to topic

The time now is: Today 23:58

All times are GMT + 3 Hours



You cannot post new topics in this forum
You cannot reply to topics in this forum
You cannot edit your posts in this forum
You cannot delete your posts in this forum
You cannot vote in polls in this forum
You cannot attach files in this forum
You cannot download files in this forum