Today is a free download without charge Download

Черкизона. Одноразовые люди / Серии: 1-60 из 60 (Алексей Гирба, Вадим Данцигер) [2010, криминал, драма, SATRip]

Reply to topic
 
Author
Message

Omen ®

Longevity: 8 years 11 months

Posts: 181086

Торрент-статистика

Post 11-Jan-2013 00:04

[Quote]

Черкизона. Одноразовые люди
Год выпуска: 2010
Производство: RWS по заказу РЕН
Жанр: криминал, драма
Продолжительность: ~45 мин - серия
Субтитры: нет
Режиссёр: Алексей Гирба, Вадим Данцигер
В ролях: Дмитрий Миллер, Анастасия Макеева, Константин Соловьев, Александр Пашков, Тимур Ефременков, Михаил Сафронов, Ольга Чудакова, Александр Симонец, Николай Сирин, Денис Жариков, Ксения Ильясова, Роман Печерский, Владимир Скворцов, Олег Соколовский, Прадьюмна Чаттерджи, Валерий Афанасьев, Юрий Кузнецов
Описание: После трагической гибели жены у провинциального хирурга Сергея Виноградова не остается человека ближе, чем Даша – десятилетняя дочь покойной. Да и сама девочка относится к нему, как к родному отцу. Втайне от близких Сергей увольняется из больницы, продает квартиру и, вопреки воле Дашиного деда, увозит ее в Москву. Полные надежды на счастливую жизнь, герои случайно попадают на печально известный Черкизовский рынок, где девочка бесследно исчезает...
Сэмпл: http://multi-up.com/755394
Качество: SATRip
Формат: AVI
Видео кодек: XviD
Аудио кодек: MP3
Видео: 704x400 (1.76:1), 25 fps, XviD build 64, 1147 kbps avg, 0.16 bit/pixel
Аудио: 48 kHz, MPEG Layer 3, 2 ch, 128.00 kbps avg

MI

General
Complete name : E:\Черкизона\01.avi
Format : AVI
Format/Info : Audio Video Interleave
File size : 449 MiB
Duration : 48mn 47s
Overall bit rate : 1 286 Kbps
Writing application : VirtualDubMod 1.5.10.3 | www.virtualdub-fr.org || (build 2550/release)
Writing library : VirtualDubMod build 2550/release
Video
ID : 0
Format : MPEG-4 Visual
Format profile : Advanced [email protected]
Format settings, BVOP : 1
Format settings, QPel : No
Format settings, GMC : No warppoints
Format settings, Matrix : Default (MPEG)
Codec ID : XVID
Codec ID/Hint : XviD
Duration : 48mn 47s
Bit rate : 1 148 Kbps
Width : 704 pixels
Height : 400 pixels
Display aspect ratio : 16:9
Frame rate : 25.000 fps
Color space : YUV
Chroma subsampling : 4:2:0
Bit depth : 8 bits
Scan type : Progressive
Compression mode : Lossy
Bits/(Pixel*Frame) : 0.163
Stream size : 401 MiB (89%)
Writing library : XviD 64
Audio
ID : 1
Format : MPEG Audio
Format version : Version 1
Format profile : Layer 3
Codec ID : 55
Codec ID/Hint : MP3
Duration : 48mn 47s
Bit rate mode : Constant
Bit rate : 128 Kbps
Channel(s) : 2 channels
Sampling rate : 48.0 KHz
Compression mode : Lossy
Stream size : 44.7 MiB (10%)
Alignment : Aligned on interleaves
Interleave, duration : 40 ms (1.00 video frame)
Interleave, preload duration : 504 ms
Writing library : LAME3.98r
Encoding settings : -m s -V 4 -q 0 -lowpass 17 -b 128
Other forum [Profile] [PM]
Display posts from previous:    
Reply to topic

The time now is: Today 09:53

All times are GMT + 3 Hours



You cannot post new topics in this forum
You cannot reply to topics in this forum
You cannot edit your posts in this forum
You cannot delete your posts in this forum
You cannot vote in polls in this forum
You cannot attach files in this forum
You cannot download files in this forum