Today is a free download without charge Download

Стервы / Серии: 1-4 из 32 (Артем Марков, Филипп Коршунов, Виталий Скородумов) [2012, криминал, DVB]

Reply to topic
 
Author
Message

Omen ®

Longevity: 8 years 11 months

Posts: 181086

Торрент-статистика

Post 11-Jan-2013 00:04

[Quote]

Стервы
Год выпуска: 2012
Производство: ООО "ППК"
Жанр: криминал
Продолжительность: ~0:43:00 серия
Субтитры: отсутствуют
Режиссёр: Артем Марков, Филипп Коршунов, Виталий Скородумов
В ролях: Янина Бугрова, Лариса Лужина, Софья Игнатова,Галина Виноградова, Ян Воробьев, Андрей Денисов,Дмитрий Митюрич, Сара Окс, Дмитрий Чукин, Владислав Шкляев, Роман Чора, Оксана Большева, Андрей Зайцев, Андрей Терешков, Владимир Мельников, Николай Алипа, Анастасия Сова-Егорова, Павел Данилов, Леся Кудряшова, Роман Павлушев
Описание: В отделе нравов при МВД есть особое подразделение, о существовании которого знает только только полковник милиции Игнатов. Через него поступают в отдел задания, связанные с особыми преступлениями, такими как секс трафик, порнобизнес и др.
Качество: DVB (ABS 1 at 75.0°E)
Формат: MPEG-PS
Видео кодек: MPEG2
Аудио кодек: MP2
Видео: MPEG 2, 720x576 (4:3), 25.000 fps, 5142 Kbps (0.496 bit/pixel)
Аудио: MP2, 48.0 KHz, 2 ch, 192 Kbps, CBR-

Описание серий

1 серия «Отдел»

В стриптиз-клубе, принадлежащем Мяснику - организатору транспортировки девушек в секс-рабство, погибает агент Кристи, работавшая под видом стриптизерши. В Отделе по борьбе с секс-трафиком (ОБПС) гибель агента - ЧП. Руководитель, Олег Морозов по кличке Дед, объявляет срочный сбор группы: - мозг Отдела Феликс и опытных агентов Лору, Надежду и Ольгу. Отдел работает под прикрытием спортклуба. В Отдел поступает задание добыть компромат на Реутова - документы на транспортировку секс-рабынь. Реутов связан с Мясником. Компромат находится в машине, которую случайно под заказ угоняет молодая воровка-профи Ника. За Никой начинается охота как со стороны Отдела, так и со стороны бандитов.

2 серия «Вербовка»

Изучая содержимое папки, Ника понимает, насколько она ценна, и у неё зарождается план. В обмен на папку она хочет получить информацию о пропавшей сестре Полине. В реализации этого плана на помощь к ней приходит ее друг Пашка. Ника, при помощи многоходовой комбинации, выходит на Реутова. В это время Дед, просчитав Нику, опережает ее на несколько ходов. Он моделирует ситуацию таким образом, что Ника в классически выстроенной комбинации оказывается виновной в смерти милиционера (мнимой). В результате ловушка захлопнулась - Ника с папкой у Морозова. В сцене разговора Ники и Деда выясняется, что с этой папкой связаны их общие интересы: Дед освобождает девушек из секс-рабства, а Ника, возможно, находит сестру...

3 серия «Подготовка»

У Лоры затянувшийся роман с мужчиной средних лет, он театральный критик. И зовут его Оскар Леонидович. Зачем он ей нужен? Даже она не может ответить себе на этот вопрос. Скорее всего, он восполняет ту брешь, которая образовалась в её слишком приземленной грязной жизни. Она с ним отдыхает душой, часами слушая его трепотню о высоком... Наутро, после очередного такого свидания, она приходит в отдел... Дед представляет Нику Отделу. Ее задание - стать участницей конкурса красоты и победить. Стервы Нику принимают настороженно. Тем не менее, приказы Морозова не обсуждаются. Феликс обучает Нику шпионским навыкам. А Лора берт на себя обучение Ники хорошим манерам. Хотя времени на это очень мало...

4 серия «Конкурс красоты»

Конкурс красоты в Улан-Удэ. Яркая мишура. Красивые девушки. Главная задача Ники - вращаясь среди участниц конкурса, собирать информацию, которая может дать выход на секс-трафик. Во время подготовки к конкурсу Ника и Алмаз становятся подругами. Они поддерживают друг друга в террариуме красоток-моделей, где сломанные каблуки, язвительные замечания и другие гадости - обычная ежедневная практика. Стервы подстраховывают Нику на месте. Морозов с Феликс остаются в Москве. У Деда есть информация о том, что главная цель порнобаронов - украсть королеву красоты...

-

MediaInfo

ОбщееПолное имя : L:\Раздачи\Стервы\Стервы.01.mpgФормат : MPEG-PSРазмер файла : 1,63 ГбайтПродолжительность : 42 м.Режим общего битрейта : ПеременныйОбщий поток : 5443 Кбит/секБиблиотека кодирования : (c) 1998-2011 Womble Multimedia, Inc. / MPEG Video Wizard DVD 5.0.1.100 (03/2011) / Dec 19 2011
ВидеоИдентификатор : 224 (0xE0)Формат : MPEG VideoВерсия формата : Version 2Профиль формата : [email protected]Параметр BVOP формата : ДаПараметр матрицы формата : ВыборочнаяПараметр GOP формата : M=3, N=24Продолжительность : 42 м.Вид битрейта : ПеременныйБитрейт : 5143 Кбит/секМаксимальный битрейт : 15,0 Мбит/секШирина : 720 пикселейВысота : 576 пикселейСоотношение сторон : 4:3Частота кадров : 25,000 кадров/секСтандарт вещания : PALЦветовое пространство : YUVСубдискретизация насыщенности : 4:2:0Битовая глубина : 8 битТип развёртки : ЧересстрочнаяПорядок развёртки : Верхнее поле первоеМетод сжатия : С потерямиБит/(Пиксели*Кадры) : 0.496Размер потока : 1,54 Гбайт (94%)Библиотека кодирования : (c) 1998-2011 Womble Multimedia, Inc. / MPEG Video Wizard DVD 5.0.1.100 (03/2011) / Dec 19 2011
АудиоИдентификатор : 192 (0xC0)Формат : MPEG AudioВерсия формата : Version 1Профиль формата : Layer 2Продолжительность : 42 м.Вид битрейта : ПостоянныйБитрейт : 192 Кбит/секКаналы : 2 каналаЧастота : 48,0 КГцМетод сжатия : С потерямиЗадержка видео : -40 мс.Размер потока : 58,7 Мбайт (4%)
Меню

Скриншоты



-

Внимание! Раздача ведётся путём добавления новых серий

при каждом добавлении создаётся новый торрент. Чтобы начать докачку новой серии, пользователям необходимо сделать следующее:
(1) остановить скачивание,
(2) удалить старый торрент у себя из клиента (старые серии удалять не надо),
(3) скачать новый торрент и запустить его у себя в клиенте вместо старого, при этом указать клиенту путь в старую папку куда и должно происходить скачивание новых серий.
Ваш клиент при этом должен произвести хеширование (проверку) старой папки (если не производит сам - помогите ему сделать это), и будет докачивать только те серии которых у вас ещё нет. Старые серии при этом не удаляются, а продолжают раздаваться!
Eсли вы уже удалили старые серии, то предотвратить повторную закачку старых серий можно, отжав галочку в соответствующих местах при запуске нового торрента. По возможности, желательно не удалять старые серии как можно дольше чтобы релизёр не столько продолжал раздавать старые серии, а смог сконцентрироваться на новых.
Other forum [Profile] [PM]
Display posts from previous:    
Reply to topic

The time now is: Today 10:15

All times are GMT + 3 Hours



You cannot post new topics in this forum
You cannot reply to topics in this forum
You cannot edit your posts in this forum
You cannot delete your posts in this forum
You cannot vote in polls in this forum
You cannot attach files in this forum
You cannot download files in this forum