Today is a free download without charge Download

Защитница / Серии: 1-8 из 8 (Александр Тименко) [2012, Детектив, SATRip]

Reply to topic
 
Author
Message

Omen ®

Longevity: 8 years 11 months

Posts: 181086

Торрент-статистика

Post 11-Jan-2013 00:04

[Quote]

Защитница
Год выпуска: 2012
Жанр: Детектив
Продолжительность: 40:00
Режиссёр: Александр Тименко
В ролях: Екатерина Климова, Сергей Горобченко, Ада Роговцева, Дмитрий Орлов, Екатерина Вуличенко, Василий Мищенко, Наталья Хорохорина, Александр Логинов, Владимир Горянский, Алексей Смолка, Максим Чумак, Нина Нижерадзе, Виктор Щур, Заза Чантурия
Описание: Мария Комиссарова - сержант поселковой полиции. Она мастер спорта по восточным единоборствам и высококлассный профессионал своего дела. Кроме того, Мария - единственная женщина поселковой полиции, красавица и гордость отделения. Острый ум, природная смекалка и навыки следопыта, доставшиеся ей от отца-егеря, позволяют девушке прекрасно ориентироваться в местных лесах и находить преступников по следам, незаметным для обычного человека. Эти качества делают Машу незаменимым человеком в отделе.
Качество: SATRip
Формат: AVI
Видео кодек: XviD
Аудио кодек: MP3
Видео: XviD, 704x384 (16:9), 25.000 fps, 1 497 Kbps (0.222 bit/pixel)
Аудио: MP3, 48.0 KHz, 2 ch, 128 Kbps, CBR

MI

Общее
Полное имя : D:\Zashitnica.(8.serij.iz.8).2012.XviD.SATRip\Zashitnica.(1.seriya.iz.8).2012.XviD.SATRip.avi
Формат : AVI
Формат/Информация : Audio Video Interleave
Размер файла : 507 Мбайт
Продолжительность : 43 м.
Общий поток : 1633 Кбит/сек
Библиотека кодирования : VirtualDub build 32842/release
Видео
Идентификатор : 0
Формат : MPEG-4 Visual
Профиль формата : Advanced [email protected]
Параметр BVOP формата : 2
Параметр QPel формата : Нет
Параметр GMC формата : Без точки перехода
Параметр матрицы формата : Default (MPEG)
Режим смешивания : Сжатый битовый поток
Идентификатор кодека : XVID
Идентификатор кодека/Подсказка : XviD
Продолжительность : 43 м.
Битрейт : 1495 Кбит/сек
Ширина : 704 пикселя
Высота : 384 пикселя
Соотношение сторон : 1,85:1
Частота кадров : 25,000 кадров/сек
Цветовое пространство : YUV
Субдискретизация насыщенности : 4:2:0
Битовая глубина : 8 бит
Тип развёртки : Прогрессивная
Метод сжатия : С потерями
Бит/(Пиксели*Кадры) : 0.221
Размер потока : 465 Мбайт (92%)
Библиотека кодирования : XviD 1.2.1 (UTC 2008-12-04)
Аудио
Идентификатор : 1
Формат : MPEG Audio
Версия формата : Version 1
Профиль формата : Layer 3
Режим : Joint stereo
Расширение режима : MS Stereo
Идентификатор кодека : 55
Идентификатор кодека/Подсказка : MP3
Продолжительность : 43 м.
Вид битрейта : Постоянный
Битрейт : 128 Кбит/сек
Каналы : 2 канала
Частота : 48,0 КГц
Метод сжатия : С потерями
Размер потока : 39,8 Мбайт (8%)
Выравнивание : Разделение по промежуткам
Продолжительность промежутка : 40 мс. (1,00 видеокадр)
Время предзагрузки промежутка : 500 мс.
Библиотека кодирования : LAME3.99r
Настройки программы : -m j -V 4 -q 2 -lowpass 17 -b 128

Скриншоты


Other forum [Profile] [PM]
Similar theme
Forum Topic Author Torrent Replies Last Post
./templates/default/images/folder_dl.gif Компьютерная литература Столлингс В. - Криптография и защита сетей. Принципы и практика [2001, PDF, RUS] Omen
1 | 0

0 | 679

2

2015-05-04 03:09
Omen Latest
Display posts from previous:    
Reply to topic

The time now is: Today 12:47

All times are GMT + 3 Hours



You cannot post new topics in this forum
You cannot reply to topics in this forum
You cannot edit your posts in this forum
You cannot delete your posts in this forum
You cannot vote in polls in this forum
You cannot attach files in this forum
You cannot download files in this forum