Today is a free download without charge Download

Смерть шпионам. Скрытый враг (Смертельная схватка) / Сезон: 3 Серии: 1-4 из 4 (Эдуард Пальмов) [2012, Украина, Беларусь, военный, DVD9] R5 Original Rus

Reply to topic
 
Author
Message

Omen ®

Longevity: 8 years 11 months

Posts: 181086

Торрент-статистика

Post 11-Jan-2013 00:04

[Quote]

-Смерть шпионам. Скрытый враг -Страна: Украина, Беларусь
Студия: Беларусьфильм, Стар-медиа
Жанр: военный
Год выпуска: 2012
Мировая премьера: 9 мая 2012
Дата выхода DVD: 6 сентября 2012, «Мистерия Звука»
Продолжительность: 206 мин.
Перевод: Оригинал [Лицензия]
Cубтитры: нет
Оригинальная аудиодорожка: русский-Режиссер: Эдуард Пальмов-В ролях: Илья Шакунов, Олег Морозов, Денис Бургазлиев, Елена Дудина, Анна Дюкова, Яков Шамшин, Михаил Васьков, Яна Соболевская, Валерий Афанасьев, Алексей Смолка, Владимир Горянский, Артем Волков, Виталий Салий, Юрий Ильин, Валентин Варецкий, Евгений Ефремов, Михаил Жонин, Александр Кобзарь, Вячеслав Соломка, Александр Данильченко, Григорий Боковенко, Александр Андриенко, Полина Пальмова-Описание: 1943 год, на территорию оккупированной Украины немцы забрасывают диверсионную группу, набранную из советских военнопленных. Двое диверсантов — Беляев и Зайцев по собственному желанию сдаются нашей контрразведке, они начинают сотрудничать с Александром Галимовым; остальные — прячутся в лесах. Помимо своей работы Галимов увлечен машинисткой СМЕРШа Любой Липинской, которая немного старше него; в начале войны в бомбежке погиб ее единственный сын.
Советская контрразведка умело начинает вести радиоигру с абвером с помощью сдавшихся для выманивания у немцев боеприпасов и подкрепления. Но все же некто следит за диверсантами, а ночью, проникнув на квартиру медсестры Марьяны Ефимовой, где они квартируются, убивает Беляева — Зайцева Марьяне удается спасти. Тем временем немцы хотят взорвать стратегически важный мост, по которому движутся составы с боеприпасами — в охрану моста внедрён немецкий диверсант…
-Бонусы: нет- -Релиз группы: -Качество: DVD9 R5
Формат: DVD-Video
Видео кодек: MPEG2
Аудио кодек: AC3
Видео: PAL 16:9 (720x576(0.578)) MPEG Video, 25,000 кадр/сек, 5991 Кбит/сек
Аудио: Russian (Dolby AC3, 2 ch) 192 Кбит/сек, 48,0 КГц--

DVDInfo

Title: Smert.shpionam.skrytyj.vrag.2012.DVD9
Size: 7.78 Gb ( 8 154 324,00 KBytes ) - DVD-9
Enabled regions: 1, 2, 3, 4, 5, 6, 7, 8
VTS_01 :
Play Length: 00:00:16+03:25:52
Video: PAL 16:9 (720x576) VBR, Auto Letterboxed
Audio:
Russian (Dolby AC3, 2 ch)
* Menus Information *
VIDEO_TS Menu
Video:
NTSC 4:3 (720x480) VBR
Auto Pan&Scan, Auto Letterboxed
Russian Language Unit :
Title Menu
VTS_01 Menu
Video:
PAL 16:9 (720x576) VBR
Auto Letterboxed
Audio:
Not specified (Dolby AC3, 2 ch)
Russian Language Unit :
Root Menu
Chapter (PTT) Menu

MediaInfo

Общее
Полное имя : J:\Новинки 2012\Smert.shpionam.skrytyj.vrag.2012.DVD9\VIDEO_TS\VTS_01_1.VOB
Формат : MPEG-PS
Размер файла : 1024 Мбайт
Продолжительность : 22 м.
Режим общего битрейта : Переменный
Общий поток : 6309 Кбит/сек
Видео
Идентификатор : 224 (0xE0)
Формат : MPEG Video
Версия формата : Version 2
Профиль формата : [email protected]
Параметр BVOP формата : Да
Параметр матрицы формата : Выборочная
Продолжительность : 22 м.
Вид битрейта : Переменный
Битрейт : 5991 Кбит/сек
Максимальный битрейт : 8000 Кбит/сек
Ширина : 720 пикселей
Высота : 576 пикселей
Соотношение сторон : 16:9
Частота кадров : 25,000 кадров/сек
Стандарт вещания : PAL
Цветовое пространство : YUV
Субдискретизация насыщенности : 4:2:0
Битовая глубина : 8 бит
Метод сжатия : С потерями
Бит/(Пиксели*Кадры) : 0.578
Размер потока : 972 Мбайт (95%)
Аудио
Идентификатор : 189 (0xBD)-128 (0x80)
Формат : AC-3
Формат/Информация : Audio Coding 3
Расширение режима : CM (complete main)
Параметр Endianness формата : Big
Режим смешивания : DVD-Video
Продолжительность : 22 м.
Вид битрейта : Постоянный
Битрейт : 192 Кбит/сек
Каналы : 2 канала
Расположение каналов : Front: L R
Частота : 48,0 КГц
Битовая глубина : 16 бит
Метод сжатия : С потерями
Задержка видео : -50 мс.
Размер потока : 31,2 Мбайт (3%)

Скриншоты меню

Скриншоты сериала

-
Other forum [Profile] [PM]
Display posts from previous:    
Reply to topic

The time now is: Today 11:47

All times are GMT + 3 Hours



You cannot post new topics in this forum
You cannot reply to topics in this forum
You cannot edit your posts in this forum
You cannot delete your posts in this forum
You cannot vote in polls in this forum
You cannot attach files in this forum
You cannot download files in this forum