Today is a free download without charge Download

Смерть шпионам. Скрытый враг / Серии: 4 из 4 (Эдуард Пальмов) [2012, военный, DVDRip]

Reply to topic
 
Author
Message

Omen ®

Longevity: 9 years

Posts: 181086

Торрент-статистика

Post 11-Jan-2013 00:04

[Quote]

Смерть шпионам. Скрытый враг
Год выпуска: 2012
Производство: Беларусьфильм, Стар-медиа
Жанр: военный
Продолжительность: 00:52:00
Субтитры: Нет--Режиссёр: Эдуард Пальмов--В ролях: Илья Шакунов, Олег Морозов, Денис Бургазлиев, Елена Дудина, Анна Дюкова, Яков Шамшин, Михаил Васьков, Яна Соболевская, Валерий Афанасьев, Алексей Смолка, Владимир Горянский, Артем Волков, Виталий Салий, Юрий Ильин, Валентин Варецкий, Евгений Ефремов, Михаил Жонин, Александр Кобзарь, Вячеслав Соломка, Александр Данильченко, Григорий Боковенко, Александр Андриенко, Полина Пальмова
Описание: На территории Польши, оккупированной немцами, действует разведшкола, готовящая диверсантов. У каждого из них свои жизненные обстоятельства, заставившие служить врагам. Группу из шести человек отправляют в советский тыл, чтобы уничтожить важный стратегический мост в районе Житомира. Через этот мост в направление фронта идет основной поток военной техники и боеприпасов Советской Армии. Уничтожение моста позволит нарушить «кровоснабжение» действующей армии накануне наступления.А в это время в расположении советских войск работают капитан НКВД Александр Галимов со своей помощницей младшим лейтенантом Любовью Липинской, вместе с которой он пытается предупредить диверсию. Но и среди своих им приходится преодолевать служебную бюрократию, происки тайных и явных недоброжелателей, и разбираться в собственных сердечных симпатиях. В действиях диверсантов нет слаженности и порядка, слишком разная оказалась у них мотивация и подоплека. Кто-то из их добровольно работает на немцев, кто-то хочет использовать заброску для перехода на сторону Советской Армии, а кто-то решает использовать немцев в своих собственных корыстных интересах. Но, тем не менее, группе диверсантов удается вплотную подойти к выполнению главного задания. Решающая операция обойдется СМЕРШевцам не только ценой подвига, но и личным выбором и жертвой.-Сэмпл: http://multi-up.com/757584--Качество: DVDRip
Формат: AVI
Видео кодек: XviD
Аудио кодек: AC3
Видео: MPEG4, XviD, 720x400 (16/9), 25.000 fps, 1 688 Kbps (0.234 bit/pixel)
Аудио: AC-3, 48.0 KHz, 2 ch, 192 Kbps, CBR

Реклама отсутствует!

MI

General
Complete name : I:\ЗАКАЧКИ\Smert.shpionam.skrytyy.Vrag.2012.O.DVDRip\Smert.shpionam.skrytyy.Vrag.1.seriya.iz.4.2012.O.DVDRip.IRONCLUB.avi
Format : AVI
Format/Info : Audio Video Interleave
File size : 700 MiB
Duration : 51mn 46s
Overall bit rate : 1 890 Kbps
Movie name : Smert.shpionam.skrytyy.Vrag.1.seriya.iz.4.2012.O.DVDRip.IRONCLUB
Director : -=IRONCLUB=-
Writing application : VirtualDubMod 1.5.10.2 (build 2540/release)
Original source form/Name : Movie
Video
ID : 0
Format : MPEG-4 Visual
Format profile : Advanced [email protected]
Format settings, BVOP : 1
Format settings, QPel : No
Format settings, GMC : No warppoints
Format settings, Matrix : Custom
Codec ID : XVID
Codec ID/Hint : XviD
Duration : 51mn 46s
Bit rate : 1 688 Kbps
Width : 720 pixels
Height : 400 pixels
Display aspect ratio : 16:9
Frame rate : 25.000 fps
Color space : YUV
Chroma subsampling : 4:2:0
Bit depth : 8 bits
Scan type : Progressive
Compression mode : Lossy
Bits/(Pixel*Frame) : 0.234
Stream size : 625 MiB (89%)
Writing library : XviD 1.2.1 (UTC 2008-12-04)
Audio
ID : 1
Format : AC-3
Format/Info : Audio Coding 3
Mode extension : CM (complete main)
Codec ID : 2000
Duration : 51mn 46s
Bit rate mode : Constant
Bit rate : 192 Kbps
Channel(s) : 2 channels
Channel positions : Front: L R
Sampling rate : 48.0 KHz
Bit depth : 16 bits
Compression mode : Lossy
Stream size : 71.1 MiB (10%)
Alignment : Split accross interleaves
Interleave, duration : 40 ms (1.00 video frame)
Interleave, preload duration : 500 ms

Скриншоты



Other forum [Profile] [PM]
Similar theme
Forum Topic Author Torrent Replies Last Post
./templates/default/images/folder_dl.gif Антология зарубежного кино Жажда смерти [Пенталогия] / Death Wish [Pentalogy] (Майкл Уиннер, Дж. Ли Томпсон, Аллан Голдштейн) [1974–1993, боевик, триллер, DVDRip] MVO, AVO, VO DED
1 | 0

1 | 3122

1

2015-11-13 22:52
DED Latest
Display posts from previous:    
Reply to topic

The time now is: Today 18:12

All times are GMT + 3 Hours



You cannot post new topics in this forum
You cannot reply to topics in this forum
You cannot edit your posts in this forum
You cannot delete your posts in this forum
You cannot vote in polls in this forum
You cannot attach files in this forum
You cannot download files in this forum