Today is a free download without charge Download

Остров ненужных людей / Сезон: 1 из 1. Серии: 24 из 24 (Эдуард Парри) [2012, Приключенческая драма, 4xDVD5]

Reply to topic
 
Author
Message

Omen ®

Longevity: 8 years 11 months

Posts: 181086

Торрент-статистика

Post 11-Jan-2013 00:04

[Quote]

Остров ненужных людей
Год выпуска: 2012
Производство: Россия, Star Media, OST VIDEO
Жанр: Приключенческая драма
Продолжительность: ~ 00:46:16 x 24серии
Субтитры: нет
Режиссёр: Эдуард Парри
В ролях: Дмитрий Ульянов, Эльвира Болгова, Нелли Пшенная, Александр Панкратов-Черный, Юлия Силаева, Александр Робак, Павел Трубинер, Константин Милованов, Галина Звягинцева, Екатерина Стулова, Людмила Степченкова, Наталья Васько, Людмила Загорская, Максим Лагашкин, Георгий Пицхелаури, Всеволод Хованский-Померанцев, Алла Мартынюк, Дмитрий Суржиков, Сергей Калантай, Заза Чантурия, Равшана Куркова, Андрей Харитонов, Сергей Чирков, Игорь Воробьев, Анатолий Зиновенко, Виктория Токманенко, Игорь Писный, Валентин Терехов
Описание: Группа туристов из тринадцати человек, включая Лизу и Андрея, прилетает в азиатскую страну, но вместо экзотического путешествия их ожидает суровое испытание. Потерпев кораблекрушение, они спасаются на необитаемом острове. Несчастным предстоит выживать. Каждый использует свои навыки, чтобы занять нишу в новом социуме. Находит её и Лиза. Начитавшись детективов, она начинает собственное расследование обстоятельств, при которых их пестрая компания оказалась на острове и заставляет всех вспомнить своё прошлое. Лиза обнаруживает странную закономерность: все они когда-то были связаны между собой. Кто-то узнает родственника, кто-то - коллегу либо конкурента, которому мешал. И только Андрей уклоняется от расспросов жены - в своем плане по избавлению от нее он не учел, что поправки в их дальнейшую судьбу внесет не он, а Высшие силы...
Сэмпл: http://multi-up.com/757662

"Коврики":

Качество: DVD5
Формат: DVD-Video
Видео кодек: MPEG2
Аудио кодек: AC-3
Видео: PAL 16:9 (720x576) VBR Auto Letterboxed; ~ 2234.60 kbps avg
Аудио: Dolby AC3, 48.0 KHz, 2 ch, 128 Kbps

MI

General
Complete name : C:\Users\Roman\Documents\Z\DVDs\UP\Остров ненужных людей (4xDVD5)\Диск 1\VIDEO_TS\VIDEO_TS.BUP
Format : DVD Video
Format profile : Menu
File size : 12.0 KiB
Overall bit rate mode : Variable
Video
ID : 224 (0xE0)
Format : MPEG Video
Format version : Version 2
Bit rate mode : Variable
Width : 720 pixels
Height : 576 pixels
Display aspect ratio : 4:3
Frame rate : 25.000 fps
Standard : PAL
Compression mode : Lossy
General
Complete name : C:\Users\Roman\Documents\Z\DVDs\UP\Остров ненужных людей (4xDVD5)\Диск 1\VIDEO_TS\VIDEO_TS.IFO
Format : DVD Video
Format profile : Menu
File size : 12.0 KiB
Overall bit rate mode : Variable
Video
ID : 224 (0xE0)
Format : MPEG Video
Format version : Version 2
Bit rate mode : Variable
Width : 720 pixels
Height : 576 pixels
Display aspect ratio : 4:3
Frame rate : 25.000 fps
Standard : PAL
Compression mode : Lossy
General
Complete name : C:\Users\Roman\Documents\Z\DVDs\UP\Остров ненужных людей (4xDVD5)\Диск 1\VIDEO_TS\VIDEO_TS.VOB
Format : MPEG-PS
File size : 48.0 KiB
Duration : 40ms
Overall bit rate mode : Variable
Overall bit rate : 9 830 Kbps
Video
ID : 224 (0xE0)
Format : MPEG Video
Format version : Version 2
Format profile : [email protected]
Format settings, BVOP : No
Format settings, Matrix : Default
Duration : 40ms
Bit rate mode : Variable
Maximum bit rate : 9 000 Kbps
Width : 720 pixels
Height : 576 pixels
Display aspect ratio : 4:3
Frame rate : 25.000 fps
Standard : PAL
Color space : YUV
Chroma subsampling : 4:2:0
Bit depth : 8 bits
Scan type : Progressive
Scan order : Top Field First
Compression mode : Lossy
Color primaries : BT.601 PAL
Transfer characteristics : BT.470 System B, BT.470 System G
Matrix coefficients : BT.601
Menu
General
Complete name : C:\Users\Roman\Documents\Z\DVDs\UP\Остров ненужных людей (4xDVD5)\Диск 1\VIDEO_TS\VTS_01_0.BUP
Format : DVD Video
Format profile : Program
File size : 140 KiB
Duration : 600ms
Overall bit rate mode : Variable
Overall bit rate : 1 911 Kbps
Video
ID : 224 (0xE0)
Format : MPEG Video
Format version : Version 2
Duration : 600ms
Bit rate mode : Variable
Width : 720 pixels
Height : 576 pixels
Display aspect ratio : 16:9
Frame rate : 25.000 fps
Standard : PAL
Compression mode : Lossy
Audio
Format : AC-3
Format/Info : Audio Coding 3
Duration : 600ms
Channel(s) : 2 channels
Sampling rate : 48.0 KHz
Compression mode : Lossy
Language : English
Menu #1
Duration : 600ms
00:00:00.000 : Chapter 1
Menu #2
Duration : 600ms
00:00:00.000 : Chapter 1
General
Complete name : C:\Users\Roman\Documents\Z\DVDs\UP\Остров ненужных людей (4xDVD5)\Диск 1\VIDEO_TS\VTS_01_0.IFO
Format : DVD Video
Format profile : Program
File size : 140 KiB
Duration : 600ms
Overall bit rate mode : Variable
Overall bit rate : 1 911 Kbps
Video
ID : 224 (0xE0)
Format : MPEG Video
Format version : Version 2
Duration : 600ms
Bit rate mode : Variable
Width : 720 pixels
Height : 576 pixels
Display aspect ratio : 16:9
Frame rate : 25.000 fps
Standard : PAL
Compression mode : Lossy
Audio
Format : AC-3
Format/Info : Audio Coding 3
Duration : 600ms
Channel(s) : 2 channels
Sampling rate : 48.0 KHz
Compression mode : Lossy
Language : English
Menu #1
Duration : 600ms
00:00:00.000 : Chapter 1
Menu #2
Duration : 600ms
00:00:00.000 : Chapter 1
General
Complete name : C:\Users\Roman\Documents\Z\DVDs\UP\Остров ненужных людей (4xDVD5)\Диск 1\VIDEO_TS\VTS_01_0.VOB
Format : MPEG-PS
File size : 1.00 MiB
Duration : 16s 640ms
Overall bit rate mode : Variable
Overall bit rate : 504 Kbps
Video
ID : 224 (0xE0)
Format : MPEG Video
Format version : Version 2
Format profile : [email protected]
Format settings, BVOP : No
Format settings, Matrix : Default
Format settings, GOP : N=1
Duration : 40ms
Bit rate mode : Variable
Maximum bit rate : 9 000 Kbps
Width : 720 pixels
Height : 576 pixels
Display aspect ratio : 16:9
Frame rate : 25.000 fps
Standard : PAL
Color space : YUV
Chroma subsampling : 4:2:0
Bit depth : 8 bits
Scan type : Progressive
Scan order : Top Field First
Compression mode : Lossy
Color primaries : BT.601 PAL
Transfer characteristics : BT.470 System B, BT.470 System G
Matrix coefficients : BT.601
Audio #1
ID : 223 (0xDF)
Format : MPEG Audio
Compression mode : Lossy
Audio #2
ID : 189 (0xBD)-128 (0x80)
Format : AC-3
Format/Info : Audio Coding 3
Mode extension : CM (complete main)
Format settings, Endianness : Big
Muxing mode : DVD-Video
Duration : 16s 640ms
Bit rate mode : Constant
Bit rate : 128 Kbps
Channel(s) : 2 channels
Channel positions : Front: L R
Sampling rate : 48.0 KHz
Bit depth : 16 bits
Compression mode : Lossy
Stream size : 260 KiB (25%)
Text #1
ID : 189 (0xBD)-32 (0x20)
Format : RLE
Format/Info : Run-length encoding
Muxing mode : DVD-Video
Duration : 256ms
Text #2
ID : 189 (0xBD)-33 (0x21)
Format : RLE
Format/Info : Run-length encoding
Muxing mode : DVD-Video
Duration : 256ms
Text #3
ID : 189 (0xBD)-34 (0x22)
Format : RLE
Format/Info : Run-length encoding
Muxing mode : DVD-Video
Duration : 256ms
Menu
General
Complete name : C:\Users\Roman\Documents\Z\DVDs\UP\Остров ненужных людей (4xDVD5)\Диск 1\VIDEO_TS\VTS_01_1.VOB
Format : MPEG-PS
File size : 1 024 MiB
Duration : 17mn 26s
Overall bit rate mode : Variable
Overall bit rate : 8 205 Kbps
Writing library : (c) 1998-2010 Womble Multimedia, Inc. / MPEG Video Wizard DVD 5.0.0.114 (01/2010) / Mar 19 2011
Video
ID : 224 (0xE0)
Format : MPEG Video
Format version : Version 2
Format profile : [email protected]
Format settings, BVOP : Yes
Format settings, Matrix : Custom
Duration : 17mn 26s
Bit rate mode : Variable
Bit rate : 7 914 Kbps
Maximum bit rate : 8 000 Kbps
Width : 720 pixels
Height : 576 pixels
Display aspect ratio : 16:9
Frame rate : 25.000 fps
Standard : PAL
Color space : YUV
Chroma subsampling : 4:2:0
Bit depth : 8 bits
Scan type : Progressive
Compression mode : Lossy
Bits/(Pixel*Frame) : 0.763
Stream size : 988 MiB (96%)
Writing library : (c) 1998-2010 Womble Multimedia, Inc. / MPEG Video Wizard DVD 5.0.0.114 (01/2010) / Mar 19 2011
Color primaries : BT.601 PAL
Transfer characteristics : BT.470 System B, BT.470 System G
Matrix coefficients : BT.601
Audio
ID : 189 (0xBD)-128 (0x80)
Format : AC-3
Format/Info : Audio Coding 3
Mode extension : CM (complete main)
Format settings, Endianness : Big
Muxing mode : DVD-Video
Duration : 17mn 26s
Bit rate mode : Constant
Bit rate : 128 Kbps
Channel(s) : 2 channels
Channel positions : Front: L R
Sampling rate : 48.0 KHz
Bit depth : 16 bits
Compression mode : Lossy
Delay relative to video : -57ms
Stream size : 16.0 MiB (2%)
Menu
General
Complete name : C:\Users\Roman\Documents\Z\DVDs\UP\Остров ненужных людей (4xDVD5)\Диск 1\VIDEO_TS\VTS_01_2.VOB
Format : MPEG-PS
File size : 1 024 MiB
Duration : 21mn 48s
Overall bit rate mode : Variable
Overall bit rate : 6 562 Kbps
Video
ID : 224 (0xE0)
Format : MPEG Video
Format version : Version 2
Format profile : [email protected]
Format settings, BVOP : Yes
Format settings, Matrix : Custom
Format settings, GOP : M=3, N=18
Duration : 21mn 48s
Bit rate mode : Variable
Bit rate : 6 304 Kbps
Maximum bit rate : 8 000 Kbps
Width : 720 pixels
Height : 576 pixels
Display aspect ratio : 16:9
Frame rate : 25.000 fps
Standard : PAL
Color space : YUV
Chroma subsampling : 4:2:0
Bit depth : 8 bits
Scan type : Progressive
Compression mode : Lossy
Bits/(Pixel*Frame) : 0.608
Stream size : 983 MiB (96%)
Color primaries : BT.601 PAL
Transfer characteristics : BT.470 System B, BT.470 System G
Matrix coefficients : BT.601
Audio
ID : 189 (0xBD)-128 (0x80)
Format : AC-3
Format/Info : Audio Coding 3
Mode extension : CM (complete main)
Format settings, Endianness : Big
Muxing mode : DVD-Video
Duration : 21mn 48s
Bit rate mode : Constant
Bit rate : 128 Kbps
Channel(s) : 2 channels
Channel positions : Front: L R
Sampling rate : 48.0 KHz
Bit depth : 16 bits
Compression mode : Lossy
Delay relative to video : -816ms
Stream size : 20.0 MiB (2%)
Menu
General
Complete name : C:\Users\Roman\Documents\Z\DVDs\UP\Остров ненужных людей (4xDVD5)\Диск 1\VIDEO_TS\VTS_01_3.VOB
Format : MPEG-PS
File size : 1 024 MiB
Overall bit rate mode : Variable
Video
ID : 224 (0xE0)
Format : MPEG Video
Format version : Version 2
Format profile : [email protected]
Format settings, BVOP : Yes
Format settings, Matrix : Custom
Format settings, GOP : M=3, N=18
Bit rate mode : Variable
Maximum bit rate : 8 000 Kbps
Width : 720 pixels
Height : 576 pixels
Display aspect ratio : 16:9
Frame rate : 25.000 fps
Standard : PAL
Color space : YUV
Chroma subsampling : 4:2:0
Bit depth : 8 bits
Scan type : Progressive
Compression mode : Lossy
Color primaries : BT.601 PAL
Transfer characteristics : BT.470 System B, BT.470 System G
Matrix coefficients : BT.601
Audio
ID : 189 (0xBD)-128 (0x80)
Format : AC-3
Format/Info : Audio Coding 3
Mode extension : CM (complete main)
Format settings, Endianness : Big
Muxing mode : DVD-Video
Bit rate mode : Constant
Bit rate : 128 Kbps
Channel(s) : 2 channels
Channel positions : Front: L R
Sampling rate : 48.0 KHz
Bit depth : 16 bits
Compression mode : Lossy
Delay relative to video : -952ms
Menu
General
Complete name : C:\Users\Roman\Documents\Z\DVDs\UP\Остров ненужных людей (4xDVD5)\Диск 1\VIDEO_TS\VTS_01_4.VOB
Format : MPEG-PS
File size : 1 024 MiB
Duration : 19mn 36s
Overall bit rate mode : Variable
Overall bit rate : 7 301 Kbps
Video
ID : 224 (0xE0)
Format : MPEG Video
Format version : Version 2
Format profile : [email protected]
Format settings, BVOP : Yes
Format settings, Matrix : Custom
Format settings, GOP : M=3, N=18
Duration : 19mn 36s
Bit rate mode : Variable
Bit rate : 7 028 Kbps
Maximum bit rate : 8 000 Kbps
Width : 720 pixels
Height : 576 pixels
Display aspect ratio : 16:9
Frame rate : 25.000 fps
Standard : PAL
Color space : YUV
Chroma subsampling : 4:2:0
Bit depth : 8 bits
Scan type : Progressive
Compression mode : Lossy
Bits/(Pixel*Frame) : 0.678
Stream size : 985 MiB (96%)
Color primaries : BT.601 PAL
Transfer characteristics : BT.470 System B, BT.470 System G
Matrix coefficients : BT.601
Audio
ID : 189 (0xBD)-128 (0x80)
Format : AC-3
Format/Info : Audio Coding 3
Mode extension : CM (complete main)
Format settings, Endianness : Big
Muxing mode : DVD-Video
Duration : 19mn 36s
Bit rate mode : Constant
Bit rate : 128 Kbps
Channel(s) : 2 channels
Channel positions : Front: L R
Sampling rate : 48.0 KHz
Bit depth : 16 bits
Compression mode : Lossy
Delay relative to video : -696ms
Stream size : 18.0 MiB (2%)
Menu
General
Complete name : C:\Users\Roman\Documents\Z\DVDs\UP\Остров ненужных людей (4xDVD5)\Диск 1\VIDEO_TS\VTS_01_5.VOB
Format : MPEG-PS
File size : 169 MiB
Duration : 11mn 13s
Overall bit rate mode : Variable
Overall bit rate : 2 105 Kbps
Video
ID : 224 (0xE0)
Format : MPEG Video
Format version : Version 2
Format profile : [email protected]
Format settings, BVOP : Yes
Format settings, Matrix : Custom
Format settings, GOP : M=3, N=18
Duration : 11mn 12s
Bit rate mode : Variable
Maximum bit rate : 8 000 Kbps
Width : 720 pixels
Height : 576 pixels
Display aspect ratio : 16:9
Frame rate : 25.000 fps
Standard : PAL
Color space : YUV
Chroma subsampling : 4:2:0
Bit depth : 8 bits
Scan type : Progressive
Compression mode : Lossy
Color primaries : BT.601 PAL
Transfer characteristics : BT.470 System B, BT.470 System G
Matrix coefficients : BT.601
Audio #1
ID : 189 (0xBD)-128 (0x80)
Format : AC-3
Format/Info : Audio Coding 3
Mode extension : CM (complete main)
Format settings, Endianness : Big
Muxing mode : DVD-Video
Duration : 11mn 13s
Bit rate mode : Constant
Bit rate : 128 Kbps
Channel(s) : 2 channels
Channel positions : Front: L R
Sampling rate : 48.0 KHz
Bit depth : 16 bits
Compression mode : Lossy
Delay relative to video : -840ms
Stream size : 10.3 MiB (6%)
Audio #2
ID : 218 (0xDA)
Format : MPEG Audio
Compression mode : Lossy
Menu

DVDInfo

Title: Диск 1
Size: 4.17 Gb ( 4 368 610,00 KBytes ) - DVD-5
Enabled regions: 1, 2, 3, 4, 5, 6, 7, 8
VTS_01 :
Play Length: 00:00:00+{00:00:00}+{00:00:00}+00:00:45+00:00:21+00:43:24+{00:00:00}+{00:00:00}+00:43:41+{00:00:00}+00:44:56+{00:00:00}+00:42:52+{00:00:00}+{00:00:00}+00:44:39+{00:00:00}+00:46:17
Video: PAL 16:9 (720x576) VBR, Auto Letterboxed
Audio:
English (Dolby AC3, 2 ch)
* Menus Information *
VIDEO_TS Menu
Video:
PAL 4:3 (720x576) VBR
English Language Unit :
Title Menu
VTS_01 Menu
Video:
PAL 16:9 (720x576) VBR
Auto Letterboxed
Audio:
Not specified (Dolby AC3, 2 ch)
English Language Unit :
Root Menu
Title: Диск 2
Size: 4.17 Gb ( 4 367 468,00 KBytes ) - DVD-5
Enabled regions: 1, 2, 3, 4, 5, 6, 7, 8
VTS_01 :
Play Length: 00:00:00+{00:00:00}+{00:00:00}+00:00:26+00:00:29+00:43:28+{00:00:00}+{00:00:00}+00:45:24+{00:00:00}+00:44:06+{00:00:00}+00:45:19+{00:00:00}+{00:00:00}+00:43:54+{00:00:00}+00:45:12
Video: PAL 16:9 (720x576) VBR, Auto Letterboxed
Audio:
English (Dolby AC3, 2 ch)
* Menus Information *
VIDEO_TS Menu
Video:
PAL 4:3 (720x576) VBR
English Language Unit :
Title Menu
VTS_01 Menu
Video:
PAL 16:9 (720x576) VBR
Auto Letterboxed
Audio:
Not specified (Dolby AC3, 2 ch)
English Language Unit :
Root Menu
Title: Диск 3
Size: 4.22 Gb ( 4 422 886,00 KBytes ) - DVD-5
Enabled regions: 1, 2, 3, 4, 5, 6, 7, 8
VTS_01 :
Play Length: 00:00:00+{00:00:00}+{00:00:00}+00:00:29+00:00:21+00:45:29+{00:00:00}+{00:00:00}+00:44:09+{00:00:00}+00:44:55+{00:00:00}+00:45:29+{00:00:00}+{00:00:00}+00:44:05+{00:00:00}+00:45:02
Video: PAL 16:9 (720x576) VBR, Auto Letterboxed
Audio:
English (Dolby AC3, 2 ch)
* Menus Information *
VIDEO_TS Menu
Video:
PAL 4:3 (720x576) VBR
English Language Unit :
Title Menu
VTS_01 Menu
Video:
PAL 16:9 (720x576) VBR
Auto Letterboxed
Audio:
Not specified (Dolby AC3, 2 ch)
English Language Unit :
Root Menu
Title: Диск 4
Size: 4.24 Gb ( 4 441 654,00 KBytes ) - DVD-5
Enabled regions: 1, 2, 3, 4, 5, 6, 7, 8
VTS_01 :
Play Length: 00:00:00+{00:00:00}+{00:00:00}+00:01:00+00:00:26+00:44:20+{00:00:00}+{00:00:00}+00:44:08+{00:00:00}+00:44:04+{00:00:00}+00:44:15+{00:00:00}+{00:00:00}+00:45:55+{00:00:00}+00:46:16
Video: PAL 16:9 (720x576) VBR, Auto Letterboxed
Audio:
English (Dolby AC3, 2 ch)
* Menus Information *
VIDEO_TS Menu
Video:
PAL 4:3 (720x576) VBR
English Language Unit :
Title Menu
VTS_01 Menu
Video:
PAL 16:9 (720x576) VBR
Auto Letterboxed
Audio:
Not specified (Dolby AC3, 2 ch)
English Language Unit :
Root Menu
Other forum [Profile] [PM]
Display posts from previous:    
Reply to topic

The time now is: Today 14:35

All times are GMT + 3 Hours



You cannot post new topics in this forum
You cannot reply to topics in this forum
You cannot edit your posts in this forum
You cannot delete your posts in this forum
You cannot vote in polls in this forum
You cannot attach files in this forum
You cannot download files in this forum