Today is a free download without charge Download

Русалка / Серии: 1-4 из 4 (Вадим Арапов) [2012, мелодрама, DVB]

Reply to topic
 
Author
Message

Omen ®

Longevity: 8 years 11 months

Posts: 181086

Торрент-статистика

Post 11-Jan-2013 00:04

[Quote]

Русалка
Год выпуска: 2012
Производство: "ПАЛАМЕДА"
Жанр: мелодрама
Продолжительность: ~0:44:00 серия
Субтитры: отсутствуют
Режиссёр: Вадим Арапов
В ролях: Елена Шилова, Павел Южаков-Харланчук, Святослав Астрамович, Анна Носатова, Анатолий Котенёв, Татьяна Лютаева, Александр Ефремов, Анатолий Голуб
Описание: Они такие разные: Наташа - обычная деревенская девушка, а Олег - сын хозяина главного предприятия всей округи. Но случай свел их вместе, и они полюбили друг друга, несмотря ни на что. Но происходит непредвиденное - отец Олега увязает в долгах. Единственный шанс спасти предприятие - женить сына на дочери кредитора. Для Наташи утерян смысл жизни. Она решает наложить на себя руки. Но в критический момент ее спасает сводный брат Олега. Он говорит Наташе, что отныне она - его жена. Вскоре выясняется, что Наташа беременна...
Сэмпл[/url]-Качество: DVB (Express MD1 at 80.0°E)
Формат: MPEG-PS
Видео кодек: MPEG2
Аудио кодек: MP2
Видео: MPEG 2, 720x576 (4:3), 25.000 fps, 5392 Kbps (0.520 bit/pixel)
Аудио: MP2, 48.0 KHz, 2 ch, 256 Kbps, CBR-

MediaInfo

ОбщееПолное имя : L:\Раздачи\Русалка\Русалка.01.mpgФормат : MPEG-PSРазмер файла : 1,72 ГбайтПродолжительность : 42 м.Режим общего битрейта : ПеременныйОбщий поток : 5762 Кбит/секБиблиотека кодирования : (c) 1998-2011 Womble Multimedia, Inc. / MPEG Video Wizard DVD 5.0.1.100 (03/2011) / Dec 19 2011
ВидеоИдентификатор : 224 (0xE0)Формат : MPEG VideoВерсия формата : Version 2Профиль формата : [email protected]Параметр BVOP формата : ДаПараметр матрицы формата : ВыборочнаяПродолжительность : 42 м.Вид битрейта : ПеременныйБитрейт : 5392 Кбит/секМаксимальный битрейт : 10000 Кбит/секШирина : 720 пикселейВысота : 576 пикселейСоотношение сторон : 4:3Частота кадров : 25,000 кадров/секСтандарт вещания : PALЦветовое пространство : YUVСубдискретизация насыщенности : 4:2:0Битовая глубина : 8 битТип развёртки : ЧересстрочнаяПорядок развёртки : Верхнее поле первоеМетод сжатия : С потерямиБит/(Пиксели*Кадры) : 0.520Размер потока : 1,61 Гбайт (94%)Библиотека кодирования : (c) 1998-2011 Womble Multimedia, Inc. / MPEG Video Wizard DVD 5.0.1.100 (03/2011) / Dec 19 2011
АудиоИдентификатор : 192 (0xC0)Формат : MPEG AudioВерсия формата : Version 1Профиль формата : Layer 2Продолжительность : 42 м.Вид битрейта : ПостоянныйБитрейт : 256 Кбит/секКаналы : 2 каналаЧастота : 48,0 КГцМетод сжатия : С потерямиРазмер потока : 78,2 Мбайт (4%)
Меню

Скриншоты



-

Раздача ведётся путём добавления новых серий

Внимание! Раздача ведётся путём добавления новых серий; при каждом добавлении создаётся новый торрент. Чтобы начать докачку новой серии, пользователям необходимо сделать следующее:
(1) остановить скачивание,
(2) удалить старый торрент у себя из клиента (старые серии удалять не надо),
(3) скачать новый торрент и запустить его у себя в клиенте вместо старого, при этом указать клиенту путь в старую папку куда и должно происходить скачивание новых серий.
Ваш клиент при этом должен произвести хеширование (проверку) старой папки (если не производит сам - помогите ему сделать это), и будет докачивать только те серии которых у вас ещё нет. Старые серии при этом не удаляются, а продолжают раздаваться!
Eсли вы уже удалили старые серии, то предотвратить повторную закачку старых серий можно, отжав галочку в соответствующих местах при запуске нового торрента. По возможности, желательно не удалять старые серии как можно дольше чтобы релизёр не столько продолжал раздавать старые серии, а смог сконцентрироваться на новых.
Other forum [Profile] [PM]
Display posts from previous:    
Reply to topic

The time now is: Today 15:04

All times are GMT + 3 Hours



You cannot post new topics in this forum
You cannot reply to topics in this forum
You cannot edit your posts in this forum
You cannot delete your posts in this forum
You cannot vote in polls in this forum
You cannot attach files in this forum
You cannot download files in this forum