Today is a free download without charge Download

Вендетта по-русски / Крестная дочь / Серии: 8 из 8 (Олег Туранский) [2011, триллер, криминал, 2*DVD5]

Reply to topic
 
Author
Message

Omen ®

Longevity: 8 years 11 months

Posts: 181086

Торрент-статистика

Post 11-Jan-2013 00:04

[Quote]

Вендетта по-русски / Крестная дочь- -Год выпуска: 2011
Дистрибьютор: «Русское счастье Энтертеймент»
Производство: "Всемирные русские студии"
Жанр: триллер, криминал
Продолжительность: 369 мин.
Субтитры: нет-Режиссёр: Олег Туранский-В ролях:
Анатолий Журавлёв, Николай Добрынин, Константин Соловьев, Евгения Лоза, Дмитрий Лабуш,
Александр Тютин, Владимир Яковлев (II), Иван Агапов, Виталий Альшанский, Юрий Шлыков, Рамиль Сабитов,
Андрей Стоянов, Николай Коробов, Олег Филипчик, Сергей Белоголовцев, Ирина Чипиженко,
Владимир Майсурадзе, Евгения Дмитриева, Степан Самойленко, Алексей Агрызков, Андрей Батуханов,
Захар Хунгуреев, Михаил Полицеймако, Сергей Векслер, Денис Юшечкин, Сергей Агафонов (II)-Описание:
Действие сериала происходит в двух странах — России и вымышленной стране Хаджестан, расположенной где-то в средней Азии. Наркобарон Константин Олейник давно конфликтует со своим хаджестанским поставщиком Фарадом Батыровым. Наконец Олейник решает уничтожить своего конкурента. Заказ на убийство Батырова Олейник передает двум безутешным отцам — летчику Зубову и спецназовцу Суханову.
Несколько лет назад Батыров убил наркоманку Галину, которая первому приходилась родной, а второму — крестной дочерью. Киллеры, у которых с Батыровым собственные счеты, отправляются в Хаджестан. В мафиозные разборки оказывается втянута молодая и незадачливая журналистка, которая из любопытства залезает в самолет киллеров…
Тем временем московские оперативники, капитан Максим Платов и лейтенант Даниил Поляков, занимаются расследованием ряда заказных убийств. Вскоре оперативники начинают понимать, что ввязались в опасную игру: дело касается торговли наркотиками, которую ведут два крупнейших наркобарона-

Софт

DVD Remake Pro
Adobe Photoshop CS 5
MuxMan
-Возраст: 16+--Качество: DVD5
Формат: DVD-Video

Видео: PAL 16:9 (720x576) VBR, Auto Letterboxed
Аудио: Russian (Dolby AC3, 2 ch) 192 Kbps
-

MediaInfo

General
Complete name : G:\Вендетта по-русски (1-8 серии из 8) 2хDVD5\DVD 2\VIDEO_TS\VTS_01_2.VOB
Format : MPEG-PS
File size : 1 024 MiB
Duration : 2mn 59s
Overall bit rate : 47.9 Mbps
Video
ID : 224 (0xE0)
Format : MPEG Video
Format version : Version 2
Format profile : [email protected]
Format settings, BVOP : Yes
Format settings, Matrix : Default
Duration : 2mn 59s
Bit rate mode : Variable
Bit rate : 46.7 Mbps
Width : 720 pixels
Height : 576 pixels
Display aspect ratio : 16:9
Frame rate : 25.000 fps
Standard : PAL
Color space : YUV
Chroma subsampling : 4:2:0
Bit depth : 8 bits
Scan type : Progressive
Bits/(Pixel*Frame) : 4.506
Stream size : 998 MiB (97%)
Audio
ID : 128 (0x80)
Format : AC-3
Format/Info : Audio Coding 3
Mode extension : CM (complete main)
Duration : 2mn 59s
Bit rate mode : Constant
Bit rate : 192 Kbps
Channel(s) : 2 channels
Channel positions : Front: L R
Sampling rate : 48.0 KHz
Bit depth : 16 bits
Video delay : -560ms
Stream size : 4.11 MiB (0%)
Menu

-

DVDInfo DVD 1

Size: 3.88 Gb ( 4 067 734 KBytes ) - DVD-5
Enabled regions: 1, 2, 3, 4, 5, 6, 7, 8
VTS_01 :
Play Length: 00:47:06+00:46:21+00:46:13+00:46:01+00:00:03
Video: PAL 16:9 (720x576) VBR, Auto Letterboxed
Audio:
English (Dolby AC3, 2 ch)
VTS_02 :
Play Length:
Video: PAL 4:3 (720x576) VBR
Audio:
English (Dolby AC3, 2 ch)
Menu Video:
PAL 4:3 (720x576) VBR
Menu English Language Unit :
Root Menu
Audio #1: AC3, 2/0 ch, 192Kbps, Delay 0 mSec

DVDInfo DVD 2

Size: 3.82 Gb ( 4 008 242 KBytes ) - DVD-5
Enabled regions: 1, 2, 3, 4, 5, 6, 7, 8
VTS_01 :
Play Length: 00:00:03+00:45:56+00:45:06+00:45:49+00:46:01
Video: PAL 16:9 (720x576) VBR, Auto Letterboxed
Audio:
English (Dolby AC3, 2 ch)
VTS_02 :
Play Length:
Video: PAL 4:3 (720x576) VBR
Audio:
English (Dolby AC3, 2 ch)
Menu Video:
PAL 4:3 (720x576) VBR
Menu English Language Unit :
Root Menu
Audio #1: AC3, 2/0 ch, 192Kbps, Delay 0 mSec

-

Скриншоты меню


-

Скриншоты сериала DVD 1


Скриншоты сериала DVD 2



-

Ковры

Other forum [Profile] [PM]
Display posts from previous:    
Reply to topic

The time now is: Today 14:44

All times are GMT + 3 Hours



You cannot post new topics in this forum
You cannot reply to topics in this forum
You cannot edit your posts in this forum
You cannot delete your posts in this forum
You cannot vote in polls in this forum
You cannot attach files in this forum
You cannot download files in this forum