Today is a free download without charge Download

Отцовский инстинкт / Серии: 1-4 из 4 (Антон Азаров) [2012, Мелодрама, SATRip]

Reply to topic
 
Author
Message

Omen ®

Longevity: 8 years 11 months

Posts: 181086

Торрент-статистика

Post 11-Jan-2013 00:04

[Quote]

Отцовский инстинкт
Год выпуска: 2012
Производство: Россия, Украина, Кинокомпания "УПС"
Жанр: мелодрама
Продолжительность: 4 x ~00:47:00
Режиссёр: Антон Азаров
В ролях: Илья Шакунов, Ирина Савицкова, Елена Кондулайнен, Олеся Жураковская, Геннадий Смирнов
Описание: Ученые говорят, что отцовского инстинкта в природе не существует. Но зигзаги человеческой судьбы доказывают, что биологи ошибаются.
Андрей Перевалов живет предсказуемо: он работает в ЖЭКе и готовится стать отцом. Однажды его беременная жена уезжает к подруге и попадает в автомобильную аварию. Врач-акушер в городском родильном доме Ольга Михайлова проводит сложнейшую операцию и спасает малыша, но мать, к сожалению, не выживает. При этом все думают, что погибли оба родителя, так как водителя принимают за мужа Веры.
В это же время в больнице погибает ребенок наркоманки. Но по ошибке безалаберной медсестры, покойником назначают сына погибшей Веры…
-
Доп. информация: Реклама отсутствует!
Сэмпл: http://www.multiupload.com/2N0RKZ4GE0 или http://multi-up.com/758519
Качество: SATRip
Формат: AVI
Видео кодек: XviD
Аудио кодек: MP3
Видео: 720x400, 25 fps, XviD, ~1650 kbps, 0.229 bit/pixel
Аудио: 48 kHz, MPEG Layer 3, 2 ch, 192 kbps

MI

Видео
Идентификатор : 0
Формат : MPEG-4 Visual
Профиль формата : Advanced [email protected]
Параметр BVOP формата : 1
Параметр QPel формата : Нет
Параметр GMC формата : Без точки перехода
Параметр матрицы формата : Default (H.263)
Идентификатор кодека : XVID
Идентификатор кодека/Подсказка : XviD
Битрейт : 1649 Кбит/сек
Ширина : 720 пикс.
Высота : 400 пикс.
Соотношение сторон : 16:9
Частота кадров : 25,000 кадр/сек
Цветовое пространство : YUV
Подвыборка цветности : 4:2:0
Битовая глубина : 8 бит
Тип развёртки : Прогрессивная
Метод сжатия : С потерями
Бит/(Пиксели*Кадры) : 0.229
Размер потока : 284 Мбайт (89%)
Библиотека кодирования : XviD 1.2.1 (UTC 2008-12-04)
Аудио
Идентификатор : 1
Формат : MPEG Audio
Версия формата : Version 1
Профиль формата : Layer 3
Режим : Joint stereo
Расширение режима : MS Stereo
Идентификатор кодека : 55
Идентификатор кодека/Подсказка : MP3
Вид битрейта : Постоянный
Битрейт : 192 Кбит/сек
Каналы : 2 канала
Частота : 48,0 КГц
Метод сжатия : С потерями
Размер потока : 33,0 Мбайт (10%)
Выравнивание : Соединение по промежуткам
Продолжительность промежутка : 40 мс. (1,00 видеокадр)
Время предзагрузки промежутка : 504 ms
Библиотека кодирования : LAME3.98r
Настройки программы : -m j -V 4 -q 2 -lowpass 18.6 -b 192

Скриншоты

Внимание! Раздача ведётся путём добавления новых выпусков

При каждом добавлении создаётся новый торрент. Чтобы начать докачку нового выпуска, пользователям необходимо сделать следующее:
● остановить скачивание;
● удалить старый торрент у себя из клиента (старые выпуски удалять не надо);
● скачать новый торрент и запустить его у себя в клиенте вместо старого, при этом указать клиенту путь в старую папку куда и должно происходить скачивание новых выпусков;
● ваш клиент при запуске должен произвести хеширование (проверку) старой папки (если не производит сам - помогите ему сделать это), и будет докачивать только те выпуски, которых у вас ещё нет. Старые выпуски при этом не удаляются, а продолжают раздаваться!
● Eсли вы уже удалили старые выпуски, то предотвратить повторную закачку старых выпусков можно, отжав галочку в соответсвующих местах при запуске нового торрента.
Other forum [Profile] [PM]
Display posts from previous:    
Reply to topic

The time now is: Today 12:18

All times are GMT + 3 Hours



You cannot post new topics in this forum
You cannot reply to topics in this forum
You cannot edit your posts in this forum
You cannot delete your posts in this forum
You cannot vote in polls in this forum
You cannot attach files in this forum
You cannot download files in this forum