Today is a free download without charge Download

Кулагин и партнеры / Серии: 250 из ??? (часть 1), (Александр Грабарь, Алексей Илюхин, Григорий Любомиров) [2005, Детектив, WEBRip]

Reply to topic
 
Author
Message

Omen ®

Longevity: 8 years 11 months

Posts: 181086

Торрент-статистика

Post 11-Jan-2013 00:04

[Quote]

Кулагин и партнеры
Год выпуска: 2005
Производство: Россия
Жанр: Детектив
Продолжительность: ~ серия 25 минут
Субтитры: нет
Режиссёр: Александр Грабарь, Алексей Илюхин, Григорий Любомиров
В ролях: Леонид Кулагин, Евгения Гусева-Легковская, Александр Кулямин, Денис Яковлев, Ника Ганич, Ольга Мотина, Ольга Хохлова, Галина Аверьянова, Маргарита Арчибасова, Александр Бобров, Юлия Вайшнур, Елена Булавкина, Руслана Доронина, Олеся Ильмукова, Евгений Каплун, Ирина Лукина, Дмитрий Мазуров, Дмитрий Михин, Ирина Нехороших, Наталья Платонова, Наталья Пярн, Амбарцум Симонянц, Алексей Троценко, Надежда Чепрага, Виталий Четков, Борис Шевченко, Владимир Шумков, Сергей Щеглов, Александр Баринов, Сергей Хрусталев, Ольга Антипова, Павел Болоянгов, Андрей Брагуца, Сергей Буртяк, Федор Гирусов, Александр Денисов, Марина Капралова, Сергей Ларин, Марина Мезенцева, Алексей Пугачев, Михаил Солодовник, Иван Чуваткин, Анна Цуканова, Владимир Лаптев, Екатерина Мадалинская, Владимир Чуприков, Полина Лунегова
Описание: В центре cобытий - частное сыскное агентство "Кулагин и Партнеры" проводящее собственные расследования преступлений.
У его руля стоит бывший сотрудник спецслужб, адвокат Леонид Николаевич Кулагин. Суровые черты лица, хладнокровная размеренность, блестящая интуиция и простое человеческое сострадание - вот визитная карточка Кулагина. Кроме того, Кулагин - превосходный аналитик. Если детективное расследование - это необходимость поставить мат в три хода неизвестному противнику со сшибленными с доски фигурами… Не волнуйтесь: Кулагин расставит фигуры и найдет оппонента! А дальше? Дальше, как говорится, дело техники...
Сэмпл: http://narod.ru/disk/60833697001.443e09b48eb935951a...7-08-14.avi.html
Качество: WEBRip
Формат: AVI
Видео кодек: XviD
Аудио кодек: MP3
Видео: 512x320 (1.60:1), 25 fps, XviD build 50 ~884 kbps avg, 0.22 bit/pixel
Аудио: 44.100 kHz, MPEG Layer 3, 2 ch, ~128.00 kbps avg

MI

Общее
Полное имя : I:\КИНО\Кулагин и партнеры\Кулагин и партнеры_1\01\2005-09-13.avi
Формат : AVI
Формат/Информация : Audio Video Interleave
Размер файла : 178 Мбайт
Продолжительность : 24 м.
Общий поток : 1025 Кбит/сек
Программа кодирования : Lavf52.93.0
Видео
Идентификатор : 0
Формат : xvid
Идентификатор кодека : xvid
Продолжительность : 24 м.
Битрейт : 885 Кбит/сек
Ширина : 512 пикселей
Высота : 320 пикселей
Соотношение сторон : 1,600
Частота кадров : 25,000 кадров/сек
Бит/(Пиксели*Кадры) : 0.216
Размер потока : 154 Мбайт (86%)
Аудио
Идентификатор : 1
Формат : MPEG Audio
Версия формата : Version 1
Профиль формата : Layer 3
Режим : Joint stereo
Расширение режима : MS Stereo
Идентификатор кодека : 55
Идентификатор кодека/Подсказка : MP3
Продолжительность : 24 м.
Вид битрейта : Постоянный
Битрейт : 128 Кбит/сек
Каналы : 2 канала
Частота : 44,1 КГц
Метод сжатия : С потерями
Размер потока : 22,2 Мбайт (12%)
Выравнивание : Соединение по промежуткам
Продолжительность промежутка : 26 мс. (0,65 видеокадр)
Библиотека кодирования : LAME3.98.4ЄЄЄЄЄЄЄЄЄЄ
Общее
Полное имя : I:\КИНО\Кулагин и партнеры\Кулагин и партнеры_1\01\2005-09-14.avi
Формат : AVI
Формат/Информация : Audio Video Interleave
Размер файла : 178 Мбайт
Продолжительность : 24 м.
Общий поток : 1026 Кбит/сек
Программа кодирования : Lavf52.93.0
Видео
Идентификатор : 0
Формат : xvid
Идентификатор кодека : xvid
Продолжительность : 24 м.
Битрейт : 885 Кбит/сек
Ширина : 512 пикселей
Высота : 320 пикселей
Соотношение сторон : 1,600
Частота кадров : 25,000 кадров/сек
Бит/(Пиксели*Кадры) : 0.216
Размер потока : 154 Мбайт (86%)
Аудио
Идентификатор : 1
Формат : MPEG Audio
Версия формата : Version 1
Профиль формата : Layer 3
Режим : Joint stereo
Расширение режима : MS Stereo
Идентификатор кодека : 55
Идентификатор кодека/Подсказка : MP3
Продолжительность : 24 м.
Вид битрейта : Постоянный
Битрейт : 128 Кбит/сек
Каналы : 2 канала
Частота : 44,1 КГц
Метод сжатия : С потерями
Размер потока : 22,2 Мбайт (12%)
Выравнивание : Соединение по промежуткам
Продолжительность промежутка : 26 мс. (0,65 видеокадр)
Библиотека кодирования : LAME3.98.4ЄЄЄЄЄЄЄЄЄЄ
Общее
Полное имя : I:\КИНО\Кулагин и партнеры\Кулагин и партнеры_1\01\2005-09-21.avi
Формат : AVI
Формат/Информация : Audio Video Interleave
Размер файла : 178 Мбайт
Продолжительность : 23 м.
Общий поток : 1043 Кбит/сек
Программа кодирования : Lavf52.93.0
Видео
Идентификатор : 0
Формат : xvid
Идентификатор кодека : xvid
Продолжительность : 23 м.
Битрейт : 903 Кбит/сек
Ширина : 512 пикселей
Высота : 320 пикселей
Соотношение сторон : 1,600
Частота кадров : 25,000 кадров/сек
Бит/(Пиксели*Кадры) : 0.220
Размер потока : 154 Мбайт (87%)
Аудио
Идентификатор : 1
Формат : MPEG Audio
Версия формата : Version 1
Профиль формата : Layer 3
Режим : Joint stereo
Расширение режима : MS Stereo
Идентификатор кодека : 55
Идентификатор кодека/Подсказка : MP3
Продолжительность : 23 м.
Вид битрейта : Постоянный
Битрейт : 128 Кбит/сек
Каналы : 2 канала
Частота : 44,1 КГц
Метод сжатия : С потерями
Размер потока : 21,9 Мбайт (12%)
Выравнивание : Соединение по промежуткам
Продолжительность промежутка : 26 мс. (0,65 видеокадр)
Библиотека кодирования : LAME3.98.4ЄЄЄЄЄЄЄЄЄЄ
Общее
Полное имя : I:\КИНО\Кулагин и партнеры\Кулагин и партнеры_1\01\2005-09-22.avi
Формат : AVI
Формат/Информация : Audio Video Interleave
Размер файла : 178 Мбайт
Продолжительность : 23 м.
Общий поток : 1062 Кбит/сек
Программа кодирования : Lavf52.93.0
Видео
Идентификатор : 0
Формат : xvid
Идентификатор кодека : xvid
Продолжительность : 23 м.
Битрейт : 922 Кбит/сек
Ширина : 512 пикселей
Высота : 320 пикселей
Соотношение сторон : 1,600
Частота кадров : 25,000 кадров/сек
Бит/(Пиксели*Кадры) : 0.225
Размер потока : 155 Мбайт (87%)
Аудио
Идентификатор : 1
Формат : MPEG Audio
Версия формата : Version 1
Профиль формата : Layer 3
Режим : Joint stereo
Расширение режима : MS Stereo
Идентификатор кодека : 55
Идентификатор кодека/Подсказка : MP3
Продолжительность : 23 м.
Вид битрейта : Постоянный
Битрейт : 128 Кбит/сек
Каналы : 2 канала
Частота : 44,1 КГц
Метод сжатия : С потерями
Размер потока : 21,5 Мбайт (12%)
Выравнивание : Соединение по промежуткам
Продолжительность промежутка : 26 мс. (0,65 видеокадр)
Библиотека кодирования : LAME3.98.4ЄЄЄЄЄЄЄЄЄЄ
Общее
Полное имя : I:\КИНО\Кулагин и партнеры\Кулагин и партнеры_1\01\2005-09-23.avi
Формат : AVI
Формат/Информация : Audio Video Interleave
Размер файла : 178 Мбайт
Продолжительность : 24 м.
Общий поток : 1034 Кбит/сек
Программа кодирования : Lavf52.93.0
Видео
Идентификатор : 0
Формат : xvid
Идентификатор кодека : xvid
Продолжительность : 24 м.
Битрейт : 893 Кбит/сек
Ширина : 512 пикселей
Высота : 320 пикселей
Соотношение сторон : 1,600
Частота кадров : 25,000 кадров/сек
Бит/(Пиксели*Кадры) : 0.218
Размер потока : 154 Мбайт (86%)
Аудио
Идентификатор : 1
Формат : MPEG Audio
Версия формата : Version 1
Профиль формата : Layer 3
Режим : Joint stereo
Расширение режима : MS Stereo
Идентификатор кодека : 55
Идентификатор кодека/Подсказка : MP3
Продолжительность : 24 м.
Вид битрейта : Постоянный
Битрейт : 128 Кбит/сек
Каналы : 2 канала
Частота : 44,1 КГц
Метод сжатия : С потерями
Размер потока : 22,1 Мбайт (12%)
Выравнивание : Соединение по промежуткам
Продолжительность промежутка : 26 мс. (0,65 видеокадр)
Библиотека кодирования : LAME3.98.4ЄЄЄЄЄЄЄЄЄЄ
Общее
Полное имя : I:\КИНО\Кулагин и партнеры\Кулагин и партнеры_1\01\2005-10-04.avi
Формат : AVI
Формат/Информация : Audio Video Interleave
Размер файла : 178 Мбайт
Продолжительность : 24 м.
Общий поток : 1018 Кбит/сек
Программа кодирования : Lavf52.93.0
Видео
Идентификатор : 0
Формат : xvid
Идентификатор кодека : xvid
Продолжительность : 24 м.
Битрейт : 878 Кбит/сек
Ширина : 512 пикселей
Высота : 320 пикселей
Соотношение сторон : 1,600
Частота кадров : 25,000 кадров/сек
Бит/(Пиксели*Кадры) : 0.214
Размер потока : 153 Мбайт (86%)
Аудио
Идентификатор : 1
Формат : MPEG Audio
Версия формата : Version 1
Профиль формата : Layer 3
Режим : Joint stereo
Расширение режима : MS Stereo
Идентификатор кодека : 55
Идентификатор кодека/Подсказка : MP3
Продолжительность : 24 м.
Вид битрейта : Постоянный
Битрейт : 128 Кбит/сек
Каналы : 2 канала
Частота : 44,1 КГц
Метод сжатия : С потерями
Размер потока : 22,4 Мбайт (13%)
Выравнивание : Соединение по промежуткам
Продолжительность промежутка : 26 мс. (0,65 видеокадр)
Библиотека кодирования : LAME3.98.4ЄЄЄЄЄЄЄЄЄЄ
Общее
Полное имя : I:\КИНО\Кулагин и партнеры\Кулагин и партнеры_1\01\2005-10-11.avi
Формат : AVI
Формат/Информация : Audio Video Interleave
Размер файла : 178 Мбайт
Продолжительность : 24 м.
Общий поток : 1025 Кбит/сек
Программа кодирования : Lavf52.93.0
Видео
Идентификатор : 0
Формат : xvid
Идентификатор кодека : xvid
Продолжительность : 24 м.
Битрейт : 885 Кбит/сек
Ширина : 512 пикселей
Высота : 320 пикселей
Соотношение сторон : 1,600
Частота кадров : 25,000 кадров/сек
Бит/(Пиксели*Кадры) : 0.216
Размер потока : 153 Мбайт (86%)
Аудио
Идентификатор : 1
Формат : MPEG Audio
Версия формата : Version 1
Профиль формата : Layer 3
Режим : Joint stereo
Расширение режима : MS Stereo
Идентификатор кодека : 55
Идентификатор кодека/Подсказка : MP3
Продолжительность : 24 м.
Вид битрейта : Постоянный
Битрейт : 128 Кбит/сек
Каналы : 2 канала
Частота : 44,1 КГц
Метод сжатия : С потерями
Размер потока : 22,2 Мбайт (12%)
Выравнивание : Соединение по промежуткам
Продолжительность промежутка : 26 мс. (0,65 видеокадр)
Библиотека кодирования : LAME3.98.4
Общее
Полное имя : I:\КИНО\Кулагин и партнеры\Кулагин и партнеры_1\01\2005-10-19.avi
Формат : AVI
Формат/Информация : Audio Video Interleave
Размер файла : 178 Мбайт
Продолжительность : 23 м.
Общий поток : 1064 Кбит/сек
Программа кодирования : Lavf52.93.0
Видео
Идентификатор : 0
Формат : xvid
Идентификатор кодека : xvid
Продолжительность : 23 м.
Битрейт : 924 Кбит/сек
Ширина : 512 пикселей
Высота : 320 пикселей
Соотношение сторон : 1,600
Частота кадров : 25,000 кадров/сек
Бит/(Пиксели*Кадры) : 0.225
Размер потока : 155 Мбайт (87%)
Аудио
Идентификатор : 1
Формат : MPEG Audio
Версия формата : Version 1
Профиль формата : Layer 3
Режим : Joint stereo
Расширение режима : MS Stereo
Идентификатор кодека : 55
Идентификатор кодека/Подсказка : MP3
Продолжительность : 23 м.
Вид битрейта : Постоянный
Битрейт : 128 Кбит/сек
Каналы : 2 канала
Частота : 44,1 КГц
Метод сжатия : С потерями
Размер потока : 21,5 Мбайт (12%)
Выравнивание : Соединение по промежуткам
Продолжительность промежутка : 26 мс. (0,65 видеокадр)
Библиотека кодирования : LAME3.98.4
Общее
Полное имя : I:\КИНО\Кулагин и партнеры\Кулагин и партнеры_1\01\2005-10-27.avi
Формат : AVI
Формат/Информация : Audio Video Interleave
Размер файла : 178 Мбайт
Продолжительность : 24 м.
Общий поток : 1018 Кбит/сек
Программа кодирования : Lavf52.93.0
Видео
Идентификатор : 0
Формат : xvid
Идентификатор кодека : xvid
Продолжительность : 24 м.
Битрейт : 878 Кбит/сек
Ширина : 512 пикселей
Высота : 320 пикселей
Соотношение сторон : 1,600
Частота кадров : 25,000 кадров/сек
Бит/(Пиксели*Кадры) : 0.214
Размер потока : 154 Мбайт (86%)
Аудио
Идентификатор : 1
Формат : MPEG Audio
Версия формата : Version 1
Профиль формата : Layer 3
Режим : Joint stereo
Расширение режима : MS Stereo
Идентификатор кодека : 55
Идентификатор кодека/Подсказка : MP3
Продолжительность : 24 м.
Вид битрейта : Постоянный
Битрейт : 128 Кбит/сек
Каналы : 2 канала
Частота : 44,1 КГц
Метод сжатия : С потерями
Размер потока : 22,4 Мбайт (13%)
Выравнивание : Соединение по промежуткам
Продолжительность промежутка : 26 мс. (0,65 видеокадр)
Время предзагрузки промежутка : 26 мс.
Библиотека кодирования : LAME3.98
Общее
Полное имя : I:\КИНО\Кулагин и партнеры\Кулагин и партнеры_1\01\2005-11-02.avi
Формат : AVI
Формат/Информация : Audio Video Interleave
Размер файла : 178 Мбайт
Продолжительность : 24 м.
Общий поток : 1015 Кбит/сек
Программа кодирования : Lavf52.93.0
Видео
Идентификатор : 0
Формат : xvid
Идентификатор кодека : xvid
Продолжительность : 24 м.
Битрейт : 875 Кбит/сек
Ширина : 512 пикселей
Высота : 320 пикселей
Соотношение сторон : 1,600
Частота кадров : 25,000 кадров/сек
Бит/(Пиксели*Кадры) : 0.214
Размер потока : 153 Мбайт (86%)
Аудио
Идентификатор : 1
Формат : MPEG Audio
Версия формата : Version 1
Профиль формата : Layer 3
Режим : Joint stereo
Расширение режима : MS Stereo
Идентификатор кодека : 55
Идентификатор кодека/Подсказка : MP3
Продолжительность : 24 м.
Вид битрейта : Постоянный
Битрейт : 128 Кбит/сек
Каналы : 2 канала
Частота : 44,1 КГц
Метод сжатия : С потерями
Размер потока : 22,4 Мбайт (13%)
Выравнивание : Соединение по промежуткам
Продолжительность промежутка : 26 мс. (0,65 видеокадр)
Библиотека кодирования : LAME3.98.4
Общее
Полное имя : I:\КИНО\Кулагин и партнеры\Кулагин и партнеры_1\01\2005-11-08.avi
Формат : AVI
Формат/Информация : Audio Video Interleave
Размер файла : 178 Мбайт
Продолжительность : 24 м.
Общий поток : 1018 Кбит/сек
Программа кодирования : Lavf52.93.0
Видео
Идентификатор : 0
Формат : xvid
Идентификатор кодека : xvid
Продолжительность : 24 м.
Битрейт : 878 Кбит/сек
Ширина : 512 пикселей
Высота : 320 пикселей
Соотношение сторон : 1,600
Частота кадров : 25,000 кадров/сек
Бит/(Пиксели*Кадры) : 0.214
Размер потока : 154 Мбайт (86%)
Аудио
Идентификатор : 1
Формат : MPEG Audio
Версия формата : Version 1
Профиль формата : Layer 3
Режим : Joint stereo
Расширение режима : MS Stereo
Идентификатор кодека : 55
Идентификатор кодека/Подсказка : MP3
Продолжительность : 24 м.
Вид битрейта : Постоянный
Битрейт : 128 Кбит/сек
Каналы : 2 канала
Частота : 44,1 КГц
Метод сжатия : С потерями
Размер потока : 22,4 Мбайт (13%)
Выравнивание : Соединение по промежуткам
Продолжительность промежутка : 26 мс. (0,65 видеокадр)
Библиотека кодирования : LAME3.98.4
Общее
Полное имя : I:\КИНО\Кулагин и партнеры\Кулагин и партнеры_1\01\2005-11-16.avi
Формат : AVI
Формат/Информация : Audio Video Interleave
Размер файла : 178 Мбайт
Продолжительность : 24 м.
Общий поток : 1021 Кбит/сек
Программа кодирования : Lavf52.93.0
Видео
Идентификатор : 0
Формат : xvid
Идентификатор кодека : xvid
Продолжительность : 24 м.
Битрейт : 881 Кбит/сек
Ширина : 512 пикселей
Высота : 320 пикселей
Соотношение сторон : 1,600
Частота кадров : 25,000 кадров/сек
Бит/(Пиксели*Кадры) : 0.215
Размер потока : 154 Мбайт (86%)
Аудио
Идентификатор : 1
Формат : MPEG Audio
Версия формата : Version 1
Профиль формата : Layer 3
Режим : Joint stereo
Расширение режима : MS Stereo
Идентификатор кодека : 55
Идентификатор кодека/Подсказка : MP3
Продолжительность : 24 м.
Вид битрейта : Постоянный
Битрейт : 128 Кбит/сек
Каналы : 2 канала
Частота : 44,1 КГц
Метод сжатия : С потерями
Размер потока : 22,3 Мбайт (13%)
Выравнивание : Соединение по промежуткам
Продолжительность промежутка : 26 мс. (0,65 видеокадр)
Библиотека кодирования : LAME3.98.4
Общее
Полное имя : I:\КИНО\Кулагин и партнеры\Кулагин и партнеры_1\01\2005-11-17.avi
Формат : AVI
Формат/Информация : Audio Video Interleave
Размер файла : 178 Мбайт
Продолжительность : 23 м.
Общий поток : 1051 Кбит/сек
Программа кодирования : Lavf52.93.0
Видео
Идентификатор : 0
Формат : xvid
Идентификатор кодека : xvid
Продолжительность : 23 м.
Битрейт : 911 Кбит/сек
Ширина : 512 пикселей
Высота : 320 пикселей
Соотношение сторон : 1,600
Частота кадров : 25,000 кадров/сек
Бит/(Пиксели*Кадры) : 0.222
Размер потока : 154 Мбайт (87%)
Аудио
Идентификатор : 1
Формат : MPEG Audio
Версия формата : Version 1
Профиль формата : Layer 3
Режим : Joint stereo
Расширение режима : MS Stereo
Идентификатор кодека : 55
Идентификатор кодека/Подсказка : MP3
Продолжительность : 23 м.
Вид битрейта : Постоянный
Битрейт : 128 Кбит/сек
Каналы : 2 канала
Частота : 44,1 КГц
Метод сжатия : С потерями
Размер потока : 21,7 Мбайт (12%)
Выравнивание : Соединение по промежуткам
Продолжительность промежутка : 26 мс. (0,65 видеокадр)
Библиотека кодирования : LAME3.98.4
Общее
Полное имя : I:\КИНО\Кулагин и партнеры\Кулагин и партнеры_1\01\2005-11-22.avi
Формат : AVI
Формат/Информация : Audio Video Interleave
Размер файла : 178 Мбайт
Продолжительность : 23 м.
Общий поток : 1051 Кбит/сек
Программа кодирования : Lavf52.93.0
Видео
Идентификатор : 0
Формат : xvid
Идентификатор кодека : xvid
Продолжительность : 23 м.
Битрейт : 911 Кбит/сек
Ширина : 512 пикселей
Высота : 320 пикселей
Соотношение сторон : 1,600
Частота кадров : 25,000 кадров/сек
Бит/(Пиксели*Кадры) : 0.222
Размер потока : 154 Мбайт (87%)
Аудио
Идентификатор : 1
Формат : MPEG Audio
Версия формата : Version 1
Профиль формата : Layer 3
Режим : Joint stereo
Расширение режима : MS Stereo
Идентификатор кодека : 55
Идентификатор кодека/Подсказка : MP3
Продолжительность : 23 м.
Вид битрейта : Постоянный
Битрейт : 128 Кбит/сек
Каналы : 2 канала
Частота : 44,1 КГц
Метод сжатия : С потерями
Размер потока : 21,7 Мбайт (12%)
Выравнивание : Соединение по промежуткам
Продолжительность промежутка : 26 мс. (0,65 видеокадр)
Библиотека кодирования : LAME3.98.4
Общее
Полное имя : I:\КИНО\Кулагин и партнеры\Кулагин и партнеры_1\01\2005-11-23.avi
Формат : AVI
Формат/Информация : Audio Video Interleave
Размер файла : 178 Мбайт
Продолжительность : 24 м.
Общий поток : 1021 Кбит/сек
Программа кодирования : Lavf52.93.0
Видео
Идентификатор : 0
Формат : xvid
Идентификатор кодека : xvid
Продолжительность : 24 м.
Битрейт : 881 Кбит/сек
Ширина : 512 пикселей
Высота : 320 пикселей
Соотношение сторон : 1,600
Частота кадров : 25,000 кадров/сек
Бит/(Пиксели*Кадры) : 0.215
Размер потока : 154 Мбайт (86%)
Аудио
Идентификатор : 1
Формат : MPEG Audio
Версия формата : Version 1
Профиль формата : Layer 3
Режим : Joint stereo
Расширение режима : MS Stereo
Идентификатор кодека : 55
Идентификатор кодека/Подсказка : MP3
Продолжительность : 24 м.
Вид битрейта : Постоянный
Битрейт : 128 Кбит/сек
Каналы : 2 канала
Частота : 44,1 КГц
Метод сжатия : С потерями
Размер потока : 22,3 Мбайт (13%)
Выравнивание : Соединение по промежуткам
Продолжительность промежутка : 26 мс. (0,65 видеокадр)
Время предзагрузки промежутка : 52 мс.
Библиотека кодирования : LAMEЄ
Общее
Полное имя : I:\КИНО\Кулагин и партнеры\Кулагин и партнеры_1\01\2005-11-24.avi
Формат : AVI
Формат/Информация : Audio Video Interleave
Размер файла : 178 Мбайт
Продолжительность : 24 м.
Общий поток : 1011 Кбит/сек
Программа кодирования : Lavf52.93.0
Видео
Идентификатор : 0
Формат : xvid
Идентификатор кодека : xvid
Продолжительность : 24 м.
Битрейт : 870 Кбит/сек
Ширина : 512 пикселей
Высота : 320 пикселей
Соотношение сторон : 1,600
Частота кадров : 25,000 кадров/сек
Бит/(Пиксели*Кадры) : 0.212
Размер потока : 153 Мбайт (86%)
Аудио
Идентификатор : 1
Формат : MPEG Audio
Версия формата : Version 1
Профиль формата : Layer 3
Режим : Joint stereo
Расширение режима : MS Stereo
Идентификатор кодека : 55
Идентификатор кодека/Подсказка : MP3
Продолжительность : 24 м.
Вид битрейта : Постоянный
Битрейт : 128 Кбит/сек
Каналы : 2 канала
Частота : 44,1 КГц
Метод сжатия : С потерями
Размер потока : 22,6 Мбайт (13%)
Выравнивание : Соединение по промежуткам
Продолжительность промежутка : 26 мс. (0,65 видеокадр)
Библиотека кодирования : LAME3.98.4
Общее
Полное имя : I:\КИНО\Кулагин и партнеры\Кулагин и партнеры_1\01\2005-11-25.avi
Формат : AVI
Формат/Информация : Audio Video Interleave
Размер файла : 178 Мбайт
Продолжительность : 24 м.
Общий поток : 1034 Кбит/сек
Программа кодирования : Lavf52.93.0
Видео
Идентификатор : 0
Формат : xvid
Идентификатор кодека : xvid
Продолжительность : 24 м.
Битрейт : 894 Кбит/сек
Ширина : 512 пикселей
Высота : 320 пикселей
Соотношение сторон : 1,600
Частота кадров : 25,000 кадров/сек
Бит/(Пиксели*Кадры) : 0.218
Размер потока : 154 Мбайт (86%)
Аудио
Идентификатор : 1
Формат : MPEG Audio
Версия формата : Version 1
Профиль формата : Layer 3
Режим : Joint stereo
Расширение режима : MS Stereo
Идентификатор кодека : 55
Идентификатор кодека/Подсказка : MP3
Продолжительность : 24 м.
Вид битрейта : Постоянный
Битрейт : 128 Кбит/сек
Каналы : 2 канала
Частота : 44,1 КГц
Метод сжатия : С потерями
Размер потока : 22,1 Мбайт (12%)
Выравнивание : Соединение по промежуткам
Продолжительность промежутка : 26 мс. (0,65 видеокадр)
Время предзагрузки промежутка : 26 мс.
Библиотека кодирования : LAME3.98.4ЄЄЄЄЄЄЄЄЄЄ
Общее
Полное имя : I:\КИНО\Кулагин и партнеры\Кулагин и партнеры_1\01\2006-01-11.avi
Формат : AVI
Формат/Информация : Audio Video Interleave
Размер файла : 178 Мбайт
Продолжительность : 30 м.
Общий поток : 812 Кбит/сек
Программа кодирования : Lavf52.93.0
Видео
Идентификатор : 0
Формат : xvid
Идентификатор кодека : xvid
Продолжительность : 30 м.
Битрейт : 672 Кбит/сек
Ширина : 512 пикселей
Высота : 320 пикселей
Соотношение сторон : 1,600
Частота кадров : 25,000 кадров/сек
Бит/(Пиксели*Кадры) : 0.164
Размер потока : 148 Мбайт (83%)
Аудио
Идентификатор : 1
Формат : MPEG Audio
Версия формата : Version 1
Профиль формата : Layer 3
Режим : Joint stereo
Расширение режима : MS Stereo
Идентификатор кодека : 55
Идентификатор кодека/Подсказка : MP3
Продолжительность : 30 м.
Вид битрейта : Постоянный
Битрейт : 128 Кбит/сек
Каналы : 2 канала
Частота : 44,1 КГц
Метод сжатия : С потерями
Размер потока : 28,1 Мбайт (16%)
Выравнивание : Соединение по промежуткам
Продолжительность промежутка : 26 мс. (0,65 видеокадр)
Библиотека кодирования : LAMEUЃ а0
Общее
Полное имя : I:\КИНО\Кулагин и партнеры\Кулагин и партнеры_1\01\2006-01-17.avi
Формат : AVI
Формат/Информация : Audio Video Interleave
Размер файла : 179 Мбайт
Продолжительность : 29 м.
Общий поток : 835 Кбит/сек
Программа кодирования : Lavf52.93.0
Видео
Идентификатор : 0
Формат : xvid
Идентификатор кодека : xvid
Продолжительность : 29 м.
Битрейт : 695 Кбит/сек
Ширина : 512 пикселей
Высота : 320 пикселей
Соотношение сторон : 1,600
Частота кадров : 25,000 кадров/сек
Бит/(Пиксели*Кадры) : 0.170
Размер потока : 149 Мбайт (83%)
Аудио
Идентификатор : 1
Формат : MPEG Audio
Версия формата : Version 1
Профиль формата : Layer 3
Режим : Joint stereo
Расширение режима : MS Stereo
Идентификатор кодека : 55
Идентификатор кодека/Подсказка : MP3
Продолжительность : 29 м.
Вид битрейта : Постоянный
Битрейт : 128 Кбит/сек
Каналы : 2 канала
Частота : 44,1 КГц
Метод сжатия : С потерями
Размер потока : 27,4 Мбайт (15%)
Выравнивание : Соединение по промежуткам
Продолжительность промежутка : 26 мс. (0,65 видеокадр)
Библиотека кодирования : LAME3.98.4
Общее
Полное имя : I:\КИНО\Кулагин и партнеры\Кулагин и партнеры_1\01\2006-01-18.avi
Формат : AVI
Формат/Информация : Audio Video Interleave
Размер файла : 179 Мбайт
Продолжительность : 30 м.
Общий поток : 814 Кбит/сек
Программа кодирования : Lavf52.93.0
Видео
Идентификатор : 0
Формат : xvid
Идентификатор кодека : xvid
Продолжительность : 30 м.
Битрейт : 674 Кбит/сек
Ширина : 512 пикселей
Высота : 320 пикселей
Соотношение сторон : 1,600
Частота кадров : 25,000 кадров/сек
Бит/(Пиксели*Кадры) : 0.164
Размер потока : 148 Мбайт (83%)
Аудио
Идентификатор : 1
Формат : MPEG Audio
Версия формата : Version 1
Профиль формата : Layer 3
Режим : Joint stereo
Расширение режима : MS Stereo
Идентификатор кодека : 55
Идентификатор кодека/Подсказка : MP3
Продолжительность : 30 м.
Вид битрейта : Постоянный
Битрейт : 128 Кбит/сек
Каналы : 2 канала
Частота : 44,1 КГц
Метод сжатия : С потерями
Размер потока : 28,1 Мбайт (16%)
Выравнивание : Соединение по промежуткам
Продолжительность промежутка : 26 мс. (0,65 видеокадр)
Библиотека кодирования : LAME3.98.4ЄЄЄЄЄЄЄЄЄЄ
Общее
Полное имя : I:\КИНО\Кулагин и партнеры\Кулагин и партнеры_1\01\2006-01-24.avi
Формат : AVI
Формат/Информация : Audio Video Interleave
Размер файла : 179 Мбайт
Продолжительность : 30 м.
Общий поток : 815 Кбит/сек
Программа кодирования : Lavf52.93.0
Видео
Идентификатор : 0
Формат : xvid
Идентификатор кодека : xvid
Продолжительность : 30 м.
Битрейт : 674 Кбит/сек
Ширина : 512 пикселей
Высота : 320 пикселей
Соотношение сторон : 1,600
Частота кадров : 25,000 кадров/сек
Бит/(Пиксели*Кадры) : 0.165
Размер потока : 148 Мбайт (83%)
Аудио
Идентификатор : 1
Формат : MPEG Audio
Версия формата : Version 1
Профиль формата : Layer 3
Режим : Joint stereo
Расширение режима : MS Stereo
Идентификатор кодека : 55
Идентификатор кодека/Подсказка : MP3
Продолжительность : 30 м.
Вид битрейта : Постоянный
Битрейт : 128 Кбит/сек
Каналы : 2 канала
Частота : 44,1 КГц
Метод сжатия : С потерями
Размер потока : 28,2 Мбайт (16%)
Выравнивание : Соединение по промежуткам
Продолжительность промежутка : 26 мс. (0,65 видеокадр)
Библиотека кодирования : LAME3.98.4
Общее
Полное имя : I:\КИНО\Кулагин и партнеры\Кулагин и партнеры_1\01\2006-01-25.avi
Формат : AVI
Формат/Информация : Audio Video Interleave
Размер файла : 178 Мбайт
Продолжительность : 30 м.
Общий поток : 815 Кбит/сек
Программа кодирования : Lavf52.93.0
Видео
Идентификатор : 0
Формат : xvid
Идентификатор кодека : xvid
Продолжительность : 30 м.
Битрейт : 674 Кбит/сек
Ширина : 512 пикселей
Высота : 320 пикселей
Соотношение сторон : 1,600
Частота кадров : 25,000 кадров/сек
Бит/(Пиксели*Кадры) : 0.165
Размер потока : 148 Мбайт (83%)
Аудио
Идентификатор : 1
Формат : MPEG Audio
Версия формата : Version 1
Профиль формата : Layer 3
Режим : Joint stereo
Расширение режима : MS Stereo
Идентификатор кодека : 55
Идентификатор кодека/Подсказка : MP3
Продолжительность : 30 м.
Вид битрейта : Постоянный
Битрейт : 128 Кбит/сек
Каналы : 2 канала
Частота : 44,1 КГц
Метод сжатия : С потерями
Размер потока : 28,0 Мбайт (16%)
Выравнивание : Соединение по промежуткам
Продолжительность промежутка : 26 мс. (0,65 видеокадр)
Библиотека кодирования : LAME3.98.4UU
Общее
Полное имя : I:\КИНО\Кулагин и партнеры\Кулагин и партнеры_1\01\2006-01-26.avi
Формат : AVI
Формат/Информация : Audio Video Interleave
Размер файла : 179 Мбайт
Продолжительность : 29 м.
Общий поток : 838 Кбит/сек
Программа кодирования : Lavf52.93.0
Видео
Идентификатор : 0
Формат : xvid
Идентификатор кодека : xvid
Продолжительность : 29 м.
Битрейт : 697 Кбит/сек
Ширина : 512 пикселей
Высота : 320 пикселей
Соотношение сторон : 1,600
Частота кадров : 25,000 кадров/сек
Бит/(Пиксели*Кадры) : 0.170
Размер потока : 149 Мбайт (83%)
Аудио
Идентификатор : 1
Формат : MPEG Audio
Версия формата : Version 1
Профиль формата : Layer 3
Режим : Joint stereo
Расширение режима : MS Stereo
Идентификатор кодека : 55
Идентификатор кодека/Подсказка : MP3
Продолжительность : 29 м.
Вид битрейта : Постоянный
Битрейт : 128 Кбит/сек
Каналы : 2 канала
Частота : 44,1 КГц
Метод сжатия : С потерями
Размер потока : 27,3 Мбайт (15%)
Выравнивание : Соединение по промежуткам
Продолжительность промежутка : 26 мс. (0,65 видеокадр)
Библиотека кодирования : LAME3.98.4
Общее
Полное имя : I:\КИНО\Кулагин и партнеры\Кулагин и партнеры_1\01\2006-01-27.avi
Формат : AVI
Формат/Информация : Audio Video Interleave
Размер файла : 179 Мбайт
Продолжительность : 30 м.
Общий поток : 825 Кбит/сек
Программа кодирования : Lavf52.93.0
Видео
Идентификатор : 0
Формат : xvid
Идентификатор кодека : xvid
Продолжительность : 30 м.
Битрейт : 684 Кбит/сек
Ширина : 512 пикселей
Высота : 320 пикселей
Соотношение сторон : 1,600
Частота кадров : 25,000 кадров/сек
Бит/(Пиксели*Кадры) : 0.167
Размер потока : 148 Мбайт (83%)
Аудио
Идентификатор : 1
Формат : MPEG Audio
Версия формата : Version 1
Профиль формата : Layer 3
Режим : Joint stereo
Расширение режима : MS Stereo
Идентификатор кодека : 55
Идентификатор кодека/Подсказка : MP3
Продолжительность : 30 м.
Вид битрейта : Постоянный
Битрейт : 128 Кбит/сек
Каналы : 2 канала
Частота : 44,1 КГц
Метод сжатия : С потерями
Размер потока : 27,7 Мбайт (16%)
Выравнивание : Соединение по промежуткам
Продолжительность промежутка : 26 мс. (0,65 видеокадр)
Библиотека кодирования : LAME3.98.4
Общее
Полное имя : I:\КИНО\Кулагин и партнеры\Кулагин и партнеры_1\01\2006-01-31.avi
Формат : AVI
Формат/Информация : Audio Video Interleave
Размер файла : 179 Мбайт
Продолжительность : 30 м.
Общий поток : 815 Кбит/сек
Программа кодирования : Lavf52.93.0
Видео
Идентификатор : 0
Формат : xvid
Идентификатор кодека : xvid
Продолжительность : 30 м.
Битрейт : 674 Кбит/сек
Ширина : 512 пикселей
Высота : 320 пикселей
Соотношение сторон : 1,600
Частота кадров : 25,000 кадров/сек
Бит/(Пиксели*Кадры) : 0.165
Размер потока : 148 Мбайт (83%)
Аудио
Идентификатор : 1
Формат : MPEG Audio
Версия формата : Version 1
Профиль формата : Layer 3
Режим : Joint stereo
Расширение режима : MS Stereo
Идентификатор кодека : 55
Идентификатор кодека/Подсказка : MP3
Продолжительность : 30 м.
Вид битрейта : Постоянный
Битрейт : 128 Кбит/сек
Каналы : 2 канала
Частота : 44,1 КГц
Метод сжатия : С потерями
Размер потока : 28,1 Мбайт (16%)
Выравнивание : Соединение по промежуткам
Продолжительность промежутка : 26 мс. (0,65 видеокадр)
Библиотека кодирования : LAME3.98.4

Скриншоты


Other forum [Profile] [PM]
Display posts from previous:    
Reply to topic

The time now is: Today 12:35

All times are GMT + 3 Hours



You cannot post new topics in this forum
You cannot reply to topics in this forum
You cannot edit your posts in this forum
You cannot delete your posts in this forum
You cannot vote in polls in this forum
You cannot attach files in this forum
You cannot download files in this forum