Today is a free download without charge Download

Земский доктор. Продолжение. / Сезон: 2 Серии: 1-16 из 16 (Александр Павловский) [2011, Мелодрама, SATRip]

Reply to topic
 
Author
Message

Omen ®

Longevity: 8 years 11 months

Posts: 181086

Торрент-статистика

Post 11-Jan-2013 00:04

[Quote]

Земский доктор. Продолжение.
Год выпуска: 2011
Производство: ЭС ЭФ продакшн
Жанр: Мелодрама
Продолжительность: ~00:44:00
Режиссёр: Александр Павловский--В ролях: Ольга Будина, Александр Лазарев (мл), Ирина Купченко, Сергей Чонишвили, Татьяна Васильева, Ульяна Лаптева, Борис Клюев, Александр Яковлев, Татьяна Лютаева, Людмила Полякова, Армен Джигарханян, Андрей Чернышов, Кристина Бабушкина, Наталия Житкова, Луиза-Габриэла Бровина, Валерий Гаркалин, Галина Володина, Сергей Комаров, Яна Чигир, Игорь Иванов, Руслан Ягудин--Описание: В школе Валуев становится объектом пристального внимания всего женского коллектива. Он все больше понимает, что находится не на своем месте: он привык командовать мужчинами, а не женщинами и детьми. Ольга много оперирует - со всей области к ней потянулись больные, слух о чудо-докторе распространился быстро. Вокруг Ольги кипит жизнь - ее коллеги по больнице и подруги влюбляются, женятся, разводятся. В судьбе каждого человека Ольга старается принять участие.
-
-Сэмпл: http://multi-up.com/757864--Качество: SATRip
Формат: AVI
Видео кодек: XviD
Аудио кодек: MP3
Видео: MPEG4, XviD, 720x416 (16/9), 25.000 fps, 1 537 Kbps (0.205 bit/pixel)
Аудио: MP3, 48.0 KHz, 2 ch, 192 Kbps, CBR

Реклама отсутствует!
Релиз:

MI

General
Complete name : I:\ЗАКАЧКИ\Zemskiy.doktor.Prodolzhenie.2011.SATRip\Zemskiy.doktor.Prodolzhenie.01.2011.SATRip.KinozalSAT.avi
Format : AVI
Format/Info : Audio Video Interleave
File size : 550 MiB
Duration : 44mn 17s
Overall bit rate : 1 736 Kbps
Writing application : VirtualDubMod 1.5.4.1 (build 2178/release)
Writing library : VirtualDubMod build 2178/release
Video
ID : 0
Format : MPEG-4 Visual
Format profile : Advanced [email protected]
Format settings, BVOP : 1
Format settings, QPel : No
Format settings, GMC : No warppoints
Format settings, Matrix : Custom
Codec ID : XVID
Codec ID/Hint : XviD
Duration : 44mn 17s
Bit rate : 1 537 Kbps
Width : 720 pixels
Height : 416 pixels
Display aspect ratio : 16:9
Frame rate : 25.000 fps
Color space : YUV
Chroma subsampling : 4:2:0
Bit depth : 8 bits
Scan type : Progressive
Compression mode : Lossy
Bits/(Pixel*Frame) : 0.205
Stream size : 487 MiB (89%)
Writing library : XviD 64
Audio
ID : 1
Format : MPEG Audio
Format version : Version 1
Format profile : Layer 3
Mode : Joint stereo
Mode extension : MS Stereo
Codec ID : 55
Codec ID/Hint : MP3
Duration : 44mn 17s
Bit rate mode : Constant
Bit rate : 192 Kbps
Channel(s) : 2 channels
Sampling rate : 48.0 KHz
Compression mode : Lossy
Stream size : 60.8 MiB (11%)
Alignment : Aligned on interleaves
Interleave, duration : 80 ms (2.00 video frames)
Interleave, preload duration : 504 ms

Скриншоты



Раздача ведётся путём добавления новых серий

Внимание! Раздача ведётся путём добавления новых серий; при каждом добавлении создаётся новый торрент. Чтобы начать докачку новой серии, пользователям необходимо сделать следующее:
(1) остановить скачивание,
(2) удалить старый торрент у себя из клиента (старые серии удалять не надо),
(3) скачать новый торрент и запустить его у себя в клиенте вместо старого, при этом указать клиенту путь в старую папку куда и должно происходить скачивание новых серий.
Ваш клиент при этом должен произвести хеширование (проверку) старой папки (если не производит сам - помогите ему сделать это), и будет докачивать только те серии которых у вас ещё нет. Старые серии при этом не удаляются, а продолжают раздаваться!
Eсли вы уже удалили старые серии, то предотвратить повторную закачку старых серий можно, отжав галочку в соответствующих местах при запуске нового торрента. По возможности, желательно не удалять старые серии как можно дольше чтобы релизёр не столько продолжал раздавать старые серии, а смог сконцентрироваться на новых.
-
Other forum [Profile] [PM]
Similar theme
Forum Topic Author Torrent Replies Last Post
./templates/default/images/folder_dl.gif Историческая литература В. Н. Земсков | Сталин и народ. Почему не было восстания (2014) [DJVU, PDF] sashau
1 | 0

0 | 1267

6

2014-12-04 19:37
sashau Latest
Display posts from previous:    
Reply to topic

The time now is: Today 13:56

All times are GMT + 3 Hours



You cannot post new topics in this forum
You cannot reply to topics in this forum
You cannot edit your posts in this forum
You cannot delete your posts in this forum
You cannot vote in polls in this forum
You cannot attach files in this forum
You cannot download files in this forum