Today is a free download without charge Download

Хранимые судьбой ( Пусть не кончается любовь ) / Серии: 1-8 из 8 (Валентина Пиманова) [2011, Драма, SATRip]

Reply to topic
 
Author
Message

Omen ®

Longevity: 8 years 11 months

Posts: 181086

Торрент-статистика

Post 11-Jan-2013 00:04

[Quote]

Хранимые судьбой ( Пусть не кончается любовь )
Год выпуска: 2011
Производство: "Кумиры Фильм"
Жанр: Драма
Продолжительность: 00:53:00
Режиссёр: Валентина Пиманова
В ролях: Армен Джигарханян, Ольга Яковлева, Борис Химичев, Татьяна Конюхова, Владимир Ильин, Наталия Дрожжина, Анатолий Равикович, Лилита Озолиня, Виктор Перевалов, Анатолий Адоскин, Людмила Иванова, Тамара Сёмина, Николай Добрынин, Елена Галибина, Анна Банщикова, Кирилл Сафонов, Игорь Верник, Евгения Свиридова, Михаил Гульдан, Дмитрий Ячевский, Александр Кольцов, Алика Котова, Вячеслав Кулаков, Сергей Серов, Иван ДжанчатовОписание: В старой усадьбе – Доме ветеранов кино - живут одинокие пожилые актеры, отдавшие свою жизнь служению искусству. Главный врач - пожилой доктор Гришин, пытается сохранить усадьбу – архитектурный памятник 18 века, в то время как чиновники "от культуры" под давлением предприимчивого бизнесмена Лаврова мечтают построить на этой земле элитный развлекательный комплекс. Доктор Гришин в неравной борьбе попадает в больницу с инфарктом, а в Дом престарелых актеров приезжает новый молодой главврач Георгий Толлер…
Качество: SATRip
Формат: AVI
Видео кодек: XviD
Аудио кодек: MP3
Видео: 688x384 (1.79:1), 25 fps, XviD build 64 ~1340 kbps avg, 0.20 bit/pixel
Аудио: 48 kHz, MPEG Layer 3, 2 ch, ~128.00 kbps avg

Внимание. Раздача ведётся путём добавления новых серий

Внимание! Раздача ведётся путём добавления новых серий; при каждом добавлении создётся новый торрент. Чтобы начать докачку новой серии, пользователям необходимо сделать следующее:
(1) остановить скачивание,
(2) удалить старый торрент у себя из клиента (старые серии удалять не надо),
(3) скачать новый торрент и запустить его у себя в клиенте вместо старого, при этом указать клиенту путь в старую папку куда и должно происходить скачивание новых серий.
Ваш клиент при этом должен произвести хеширование (проверку) старой папки (если не производит сам - помогите ему сделать это), и будет докачивать только те серии которых у вас ещё нет. Старые серии при этом не удаляются, а продолжают раздаваться!
Eсли вы уже удалили старые серии, то предотвратить повторную закачку старых серий можно, отжав галочку в соответсвующих местах при запуске нового торрента. По возможности, желательно не удалять старые серии как можно дольше чтобы релизёр не столько продолжал раздавать старые серии, а смог сконцентрироваться на новых

MI

Общее
Полное имя : C:\Documents and Settings\Администратор\Рабочий стол\Хранимые судьбой_01_SatRip_by_Drek.avi
Формат : AVI
Формат/Информация : Audio Video Interleave
Размер файла : 554 Мбайт
Продолжительность : 52 м.
Общий поток : 1479 Кбит/сек
Программа кодирования : VirtualDubMod 1.5.10.3 | www.virtualdub-fr.org || (build 2550/release)
Библиотека кодирования : VirtualDubMod build 2550/release
Видео
Идентификатор : 0
Формат : MPEG-4 Visual
Профиль формата : Advanced [email protected]
Параметр BVOP формата : 2
Параметр QPel формата : Нет
Параметр GMC формата : Без точки перехода
Параметр матрицы формата : Default (H.263)
Идентификатор кодека : XVID
Идентификатор кодека/Подсказка : XviD
Продолжительность : 52 м.
Битрейт : 1341 Кбит/сек
Ширина : 688 пикселей
Высота : 384 пикселя
Соотношение сторон : 16:9
Частота кадров : 25,000 кадров/сек
Цветовое пространство : YUV
Субдискретизация насыщенности : 4:2:0
Битовая глубина : 8 бит
Тип развёртки : Прогрессивная
Метод сжатия : С потерями
Бит/(Пиксели*Кадры) : 0.203
Размер потока : 503 Мбайт (91%)
Библиотека кодирования : XviD 64
Аудио
Идентификатор : 1
Формат : MPEG Audio
Версия формата : Version 1
Профиль формата : Layer 3
Режим : Joint stereo
Расширение режима : MS Stereo
Идентификатор кодека : 55
Идентификатор кодека/Подсказка : MP3
Продолжительность : 52 м.
Вид битрейта : Постоянный
Битрейт : 128 Кбит/сек
Каналы : 2 канала
Частота : 48,0 КГц
Метод сжатия : С потерями
Размер потока : 48,0 Мбайт (9%)
Выравнивание : Соединение по промежуткам
Продолжительность промежутка : 40 мс. (1,00 видеокадр)
Время предзагрузки промежутка : 504 мс.
Библиотека кодирования : LAME3.99
Настройки программы : -m j -V 4 -q 2 -lowpass 17 -b 128

Скриншоты

Other forum [Profile] [PM]
Similar theme
Forum Topic Author Torrent Replies Last Post
./templates/default/images/folder_dl.gif Фильмы 2011-2020 Хранилище / Vault (Том ДеНуччи) [2019 г., драма, криминал, BDRip]MVO | HDRezka Studio kilmister777
1 | 0

0 | 776

0

2019-08-16 15:12
kilmister777 Latest
Display posts from previous:    
Reply to topic

The time now is: Today 08:57

All times are GMT + 3 Hours



You cannot post new topics in this forum
You cannot reply to topics in this forum
You cannot edit your posts in this forum
You cannot delete your posts in this forum
You cannot vote in polls in this forum
You cannot attach files in this forum
You cannot download files in this forum