Today is a free download without charge Download

Глубокое синее море / The Deep Blue Sea (Теренс Дэвис / Terence Davies) [2011, США, Великобритания, драма, мелодрама, BDRemux 1080p] MVO (Парадиз) + DVO (den904 & DeadSno) + VO (меломан) + Original Eng + Subs (Rus, Eng)

Reply to topic
 
Author
Message

Omen ®

Longevity: 8 years 5 months

Posts: 181087

Торрент-статистика

Post 11-Jan-2013 00:04

[Quote]

Глубокое синее море / The Deep Blue Sea Год выпуска: 2011
Страна: США, Великобритания
Жанр: драма, мелодрама
Продолжительность: 01:38:20.010
Перевод 1: Профессиональный (многоголосый закадровый) Парадиз
Перевод 2: Любительский (двухголосый закадровый) & DeadSno
Перевод 3: Одноголосый закадровый меломан
Оригинальная аудиодорожка: Английская
Субтитры: Русские, английские
Студия: Camberwell / Fly Films, Film4, UK Film Council
Режиссёр: Теренс Дэвис / Terence Davies
В ролях: Энн Митчел (Mrs. Elton), Жолион Цой (Philip Welch), Карл Джонсон (Mr. Miller), Рейчел Вайс (Hester Collyer), Саймон Расселл Бил (Sir William Collyer), Том Хиддлстон (Freddie Page), Гарри Хадден-Патон (Jackie Jackson), Сара Кэнтс (Liz Jackson), Оливер Форд Дэвис (Hester's Father), Барбара Джеффорд (Collyer's Mother), Марк Тэнди (Edie and Ravenscroft Assistant), Стюарт Маклафлин (Singing Man in Tube) и др.
Описание: Жена британского судьи страдает от разрушительного романа с молодым лётчиком.
  • Кинопоиск
  • IMDB
  • Blu-ray.com
  • Сэмпл
    Качество: BDRemux 1080p
    Контейнер: MKV
    Видео кодек: H.264
    Аудио кодек: Dolby Digital Audio / DTS-HD Master Audio
    Видео: MPEG-4 AVC Video / 22705 kbps / 1920x1080p / 24 fps / 16:9 / High Profile 4.1
    Аудио 1: Русский / Dolby Digital Audio / 192 kbps / 2.0 / 48 kHz / 16-bit (MVO Парадиз)
    Аудио 2: Русский / Dolby Digital Audio / 448 kbps / 5.1 / 48 kHz / 16-bit (DVO den904 & DeadSno)
    Аудио 3: Русский / Dolby Digital Audio / 384 kbps / 5.1 / 48 kHz / 16-bit (VO меломан)
    Аудио 4: English / DTS-HD Master Audio / 1777 kbps / 5.1 / 48 kHz / 16-bit (DTS Core: 5.1 / 48 kHz / 1509 kbps / 16-bit) (Оригинал)
    Навигация по главам: Есть

Скриншоты

MediaInfo

Z:\/*spam*/\Глубокое синее море (The Deep Blue Sea) 2011, США, Великобритания, драма, мелодрама, BDRemux 1080p GORENOISE.mkv
General
Unique ID : 172216579401913144501157443868022689294 (0x818FB4EB8975A4B0A2F22A224B424E0E)
Complete name : Z:\/*spam*/\Глубокое синее море (The Deep Blue Sea) 2011, США, Великобритания, драма, мелодрама, BDRemux 1080p GORENOISE.mkv
Format : Matroska
Format version : Version 4 / Version 2
File size : 17.5 GiB
Duration : 1h 38mn
Overall bit rate mode : Variable
Overall bit rate : 25.5 Mbps
Movie name : GORENOISE
Encoded date : UTC 2010-02-22 21:41:31
Writing application : mkvmerge v5.9.0 ('On The Loose') built on Dec 9 2012 15:37:01
Writing library : libebml v1.3.0 + libmatroska v1.4.0
Video #1
ID : 1
Format : AVC
Format/Info : Advanced Video Codec
Format profile : [email protected]
Format settings, CABAC : Yes
Format settings, ReFrames : 3 frames
Codec ID : V_MPEG4/ISO/AVC
Duration : 1h 38mn
Bit rate mode : Variable
Bit rate : 22.4 Mbps
Maximum bit rate : 29.9 Mbps
Width : 1 920 pixels
Height : 1 080 pixels
Display aspect ratio : 16:9
Frame rate mode : Constant
Frame rate : 24.000 fps
Standard : NTSC
Color space : YUV
Chroma subsampling : 4:2:0
Bit depth : 8 bits
Scan type : Progressive
Bits/(Pixel*Frame) : 0.450
Stream size : 15.4 GiB (88%)
Title : GORENOISE
Language : English
Default : Yes
Forced : No
Color primaries : BT.709
Transfer characteristics : BT.709
Matrix coefficients : BT.709
Audio #2
ID : 2
Format : AC-3
Format/Info : Audio Coding 3
Mode extension : CM (complete main)
Format settings, Endianness : Big
Codec ID : A_AC3
Duration : 1h 38mn
Bit rate mode : Constant
Bit rate : 192 Kbps
Channel(s) : 2 channels
Channel positions : Front: L R
Sampling rate : 48.0 KHz
Bit depth : 16 bits
Compression mode : Lossy
Stream size : 135 MiB (1%)
Title : Профессиональный (многоголосый закадровый) Парадиз
Language : Russian
Default : Yes
Forced : No
Audio #3
ID : 3
Format : AC-3
Format/Info : Audio Coding 3
Mode extension : CM (complete main)
Format settings, Endianness : Big
Codec ID : A_AC3
Duration : 1h 38mn
Bit rate mode : Constant
Bit rate : 448 Kbps
Channel(s) : 6 channels
Channel positions : Front: L C R, Side: L R, LFE
Sampling rate : 48.0 KHz
Bit depth : 16 bits
Compression mode : Lossy
Stream size : 315 MiB (2%)
Title : Любительский (двухголосый закадровый) den904 & DeadSno
Language : Russian
Default : No
Forced : No
Audio #4
ID : 4
Format : AC-3
Format/Info : Audio Coding 3
Mode extension : CM (complete main)
Format settings, Endianness : Big
Codec ID : A_AC3
Duration : 1h 38mn
Bit rate mode : Constant
Bit rate : 384 Kbps
Channel(s) : 6 channels
Channel positions : Front: L C R, Side: L R, LFE
Sampling rate : 48.0 KHz
Bit depth : 16 bits
Compression mode : Lossy
Stream size : 270 MiB (2%)
Title : Одгоголосый закадровый меломан
Language : Russian
Default : No
Forced : No
Audio #5
ID : 5
Format : DTS
Format/Info : Digital Theater Systems
Format profile : MA / Core
Codec ID : A_DTS
Duration : 1h 38mn
Bit rate mode : Variable
Bit rate : 1 561 Kbps / 1 510 Kbps
Channel(s) : 6 channels
Channel positions : Front: L C R, Side: L R, LFE
Sampling rate : 48.0 KHz
Bit depth : 16 bits
Compression mode : Lossless / Lossy
Title : Оригинал
Language : English
Default : No
Forced : No
Text #6
ID : 6
Format : UTF-8
Codec ID : S_TEXT/UTF8
Codec ID/Info : UTF-8 Plain Text
Language : Russian
Default : No
Forced : No
Text #7
ID : 7
Format : UTF-8
Codec ID : S_TEXT/UTF8
Codec ID/Info : UTF-8 Plain Text
Language : English
Default : No
Forced : No
Menu
00:00:00.000 : en:00:00:00.000
00:01:23.083 : en:00:01:23.083
00:14:30.917 : en:00:14:30.917
00:28:05.833 : en:00:28:05.833
00:42:18.667 : en:00:42:18.667
00:53:24.042 : en:00:53:24.042
01:03:48.125 : en:01:03:48.125
01:14:12.792 : en:01:14:12.792
01:23:41.583 : en:01:23:41.583
01:34:23.417 : en:01:34:23.417

Полноразмерный постер

Other forum [Profile] [PM]

Dracula

Longevity: 7 years 6 months

Posts: 11224

Торрент-статистика

Post 11-Jan-2013 10:48 (after 10 hours)

Топик был перенесен из форума Зарубежное кино (HD Video) в форум Зарубежное кино


Delia
 
Display posts from previous:    
Reply to topic

The time now is: Today 20:23

All times are GMT + 3 Hours



You cannot post new topics in this forum
You cannot reply to topics in this forum
You cannot edit your posts in this forum
You cannot delete your posts in this forum
You cannot vote in polls in this forum
You cannot attach files in this forum
You cannot download files in this forum