Today is a free download without charge Download

Rush - Beyond the Lighted Stage [2010, rock, documentary, Blu-ray]

Reply to topic
 
Author
Message

Omen ®

Longevity: 8 years 4 months

Posts: 181087

Торрент-статистика

Post 11-Jan-2013 00:04

[Quote]

Rush - Beyond the Lighted Stage
Жанр: rock, documentary
Продолжительность: 01:46:55 + 01:07:09 (Bonus)
Год выпуска: 2010
Описание:• There isn't a directorial duo better equipped to profile Canada's famed power trio than compatriots Sam Dunn and Scot McFadyen, the makers of Metal: A Headbanger's Journey. Insightful and entertaining, Beyond the Lighted Stage starts with the band's roots in working-class Ontario. Singer-bassist Geddy Lee, the son of Holocaust survivors, a self-described "nebbishy quiet kid," bonds with guitarist Alex Lifeson, the son of Yugoslav immigrants, over "this manic love for music," completing the lineup with "literate, opinionated" drummer Neil Peart (replacing John Rutsey). Getting gigs comes easy, but landing a record deal proves difficult until a Cleveland station takes a chance on "Working Man," and Mercury comes calling. The film proceeds oral-history style through the ensuing ups and downs: a tour with KISS (inspiring ribald comments from Gene Simmons), the making of classic records like Moving Pictures, the fashion faux pas, the personal tragedies, and the derision of critics versus the devotion of fans. Jack Black, one of several notable participants, praises their "deep reservoir of rocket sauce," while Metallica's Kirk Hammett proclaims them "the high priests of conceptual metal." They're also engaging conversationalists, and Dunn and McFadyen up the ante with home movies and early performances. The second disc offers additional live material and a look at a Rush convention. Old hands and new converts alike will find it hard to resist the true-life tale of three men who've stuck together through thick and thin, surviving and thriving where others have succumbed to petty squabbles and commercial pressures.
Доп. информация: Режиссер: Sam Dunn, Scot McFadyen
В ролях: Alex Lifeson, Geddy Lee, Neil Peart, Sebastian Bach, Jack Black, Mick Box, Danny Carey, Jimmy Chamberlin, Les Claypool, Tim Commerford, Billy Corgan, Freddie Gruber, Kirk Hammett, Taylor Hawkins, Jason McGerr, Kim Mitchell, Vinnie Paul, Mike Portnoy, Trent Reznor, Gene Simmons, Matt Stone, Zakk Wylde, Liam Birt, Terry Brown, Peter Collins, Ray Danniels, Donna Halper, Rupert Hine, Kelly Paris, Glen and Betty Peart, Nick Raskulinecz, John Roberts, Christopher Schneberger, Kevin Shirley, Howard Ungerleider, Mary Weinrib, Vic Wilson, Melanija Zivojinovich.
Special Features and Extras :
• Deleted scenes and extra footage -
- "Being Bullied and the Search for the First Gig" (8 min, 1080p).
- "Reflections on Hemispheres" (4 min, 1080p).
- "Presto and Roll the Bones Rap" (3 min, 1080p).
- "The Rush Fashion" (3 min, 1080p).
- "Hobbies on the Road" (9 min, 1080p).
- "Rush Trekkies" (4 min, 1080p).
- "Pre Gig Warm Up" (3 min, 1080p).
• Archival Footage -
- "Best I Can" with John Rutsey - Laura Secord SS - Spring 1974 (4 min, upscaled 1080p).
- "Working Man" with John Rutsey - Laura Secord SS - Spring 1974 (9 min, upscaled 1080p).
- "La Villa Strangiato" - Pinkpop - 1979 (8 min, upscaled 1080p).
- "Between the Sun and Moon" - Live at Hartford - June 28, 2002 (5 min, upscaled 1080p).
- "Far Cry" - from the Snakes & Arrows tour (6 min, 1080i).
- "Entre nous" - from the Snakes & Arrows tour (5 min, 1080i).
- "Bravado" - from the R30 tour (7 min, 1080i).
- "YYZ" - from the R30 tour (5 min, 1080i).
• More extra footage:
Dinner with Rush at a Hunting Lodge (12 min, 1080p)
Качество: Blu-ray
Контейнер: BDMV
Видео кодек: AVC
Аудио кодек: DTS, AC-3
Видео: MPEG-4 AVC 24000 kbps 1920*1080p / 23,976 fps / 16:9 / High Profile 4.1
Аудио: English DTS-HD MA 5.1 / 48 kHz / 3393 kbps / 24-bit (DTS Core: 5.1 / 48 kHz / 1509 kbps / 24-bit
Аудио 2: English Dolby Digital 5.1 / 48 kHz / 448 kbps / DN -4dB
Аудио 3: English Dolby Digital 2.0 / 48 kHz / 192 kbps / DN -4dB

Отчёт MediaInfo / BDInfo

Disc Title: Rush.Beyond the Lighted Stage.2010.BD1080p
Disc Size: 38 330 777 742 bytes
Protection: AACS
BD-Java: No
BDInfo: 0.5.8
Notes:
BDINFO HOME:
Cinema Squid
http://www.cinemasquid.com/blu-ray/tools/bdinfo
INCLUDES FORUMS REPORT FOR:
AVS Forum Blu-ray Audio and Video Specifications Thread
http://www.avsforum.com/avs-vb/showthread.php?t=1155731
********************
PLAYLIST: 00016.MPLS
********************
Код:
Total   Video
Title                                                           Codec   Length  Movie Size      Disc Size       Bitrate Bitrate Main Audio Track                          Secondary Audio Track
-----                                                           ------  ------- --------------  --------------  ------- ------- ------------------                        ---------------------
00016.MPLS                                                      AVC     1:46:55 24 159 012 864  38 330 777 742  30,12   24,00   DTS-HD Master 5.1 3393Kbps (48kHz/24-bit) DD AC3 5.1 448Kbps
Код:
DISC INFO:
Disc Title:     Rush.Beyond the Lighted Stage.2010.BD1080p
Disc Size:      38 330 777 742 bytes
Protection:     AACS
BD-Java:        No
BDInfo:         0.5.8
PLAYLIST REPORT:
Name:                   00016.MPLS
Length:                 1:46:55.700 (h:m:s.ms)
Size:                   24 159 012 864 bytes
Total Bitrate:          30,12 Mbps
VIDEO:
Codec                   Bitrate             Description
-----                   -------             -----------
MPEG-4 AVC Video        24000 kbps          1080p / 23,976 fps / 16:9 / High Profile 4.1
AUDIO:
Codec                           Language        Bitrate         Description
-----                           --------        -------         -----------
DTS-HD Master Audio             English         3393 kbps       5.1 / 48 kHz / 3393 kbps / 24-bit (DTS Core: 5.1 / 48 kHz / 1509 kbps / 24-bit)
Dolby Digital Audio             English         448 kbps        5.1 / 48 kHz / 448 kbps / DN -4dB
Dolby Digital Audio             English         192 kbps        2.0 / 48 kHz / 192 kbps / DN -4dB
SUBTITLES:
Codec                           Language        Bitrate         Description
-----                           --------        -------         -----------
Presentation Graphics           English         83,528 kbps
Presentation Graphics           French          64,095 kbps
Presentation Graphics           German          67,361 kbps
Presentation Graphics           Italian         64,642 kbps
Presentation Graphics           Spanish         70,405 kbps
Presentation Graphics           Portuguese      71,235 kbps
Presentation Graphics           Japanese        50,110 kbps
FILES:
Name            Time In         Length          Size            Total Bitrate
----            -------         ------          ----            -------------
00006.M2TS      0:00:00.000     1:46:55.700     24 159 012 864  30 125
CHAPTERS:
Number          Time In         Length          Avg Video Rate  Max 1-Sec Rate  Max 1-Sec Time  Max 5-Sec Rate  Max 5-Sec Time  Max 10Sec Rate  Max 10Sec Time  Avg Frame Size  Max Frame Size  Max Frame Time
------          -------         ------          --------------  --------------  --------------  --------------  --------------  --------------  --------------  --------------  --------------  --------------
1               0:00:00.000     0:05:26.492     25 091 kbps     45 295 kbps     00:04:44.534    38 594 kbps     00:04:41.531    37 835 kbps     00:04:36.734    130 797 bytes   532 207 bytes   00:00:10.010
2               0:05:26.492     0:09:28.150     24 054 kbps     46 378 kbps     00:10:18.534    40 090 kbps     00:09:55.136    37 633 kbps     00:09:49.797    125 405 bytes   550 971 bytes   00:14:43.924
3               0:14:54.643     0:07:23.693     20 840 kbps     43 484 kbps     00:16:24.900    38 576 kbps     00:16:24.900    36 493 kbps     00:16:24.900    108 653 bytes   497 822 bytes   00:16:52.428
4               0:22:18.337     0:12:02.054     22 663 kbps     46 377 kbps     00:24:46.818    39 384 kbps     00:24:44.232    37 299 kbps     00:22:21.548    118 154 bytes   851 090 bytes   00:23:55.809
5               0:34:20.391     0:07:36.914     18 921 kbps     36 085 kbps     00:34:57.887    30 933 kbps     00:39:30.284    30 260 kbps     00:39:29.492    98 644 bytes    548 241 bytes   00:35:56.279
6               0:41:57.306     0:02:51.588     20 509 kbps     43 372 kbps     00:43:09.545    36 937 kbps     00:43:09.086    36 068 kbps     00:44:04.600    106 925 bytes   553 895 bytes   00:44:28.582
7               0:44:48.894     0:09:48.921     23 131 kbps     43 163 kbps     00:48:39.499    36 411 kbps     00:48:36.371    33 111 kbps     00:48:23.817    120 596 bytes   584 982 bytes   00:47:49.241
8               0:54:37.816     0:06:36.729     25 091 kbps     42 617 kbps     01:00:08.604    38 286 kbps     01:00:05.935    36 833 kbps     01:00:01.306    130 813 bytes   716 271 bytes   00:55:07.429
9               1:01:14.545     0:09:26.732     27 143 kbps     43 077 kbps     01:04:34.036    36 570 kbps     01:04:33.286    35 468 kbps     01:04:33.828    141 513 bytes   656 738 bytes   01:07:53.569
10              1:10:41.278     0:09:29.068     23 725 kbps     41 016 kbps     01:19:35.604    37 548 kbps     01:19:31.558    34 665 kbps     01:19:26.595    123 691 bytes   674 314 bytes   01:10:52.122
11              1:20:10.347     0:03:28.208     32 118 kbps     41 426 kbps     01:20:33.078    37 767 kbps     01:20:32.202    35 812 kbps     01:20:30.200    167 449 bytes   668 480 bytes   01:20:33.245
12              1:23:38.555     0:06:11.412     28 144 kbps     46 227 kbps     01:26:52.207    40 184 kbps     01:26:49.746    36 586 kbps     01:26:44.199    146 727 bytes   584 513 bytes   01:27:33.373
13              1:29:49.967     0:06:20.171     27 030 kbps     43 141 kbps     01:33:15.673    37 546 kbps     01:33:14.755    35 233 kbps     01:33:09.875    140 923 bytes   544 193 bytes   01:31:55.801
14              1:36:10.139     0:07:22.650     26 745 kbps     44 103 kbps     01:41:41.553    39 910 kbps     01:39:28.837    37 172 kbps     01:41:32.753    139 438 bytes   721 126 bytes   01:38:41.749
15              1:43:32.789     0:03:22.911     12 935 kbps     33 546 kbps     01:46:48.985    29 107 kbps     01:46:48.985    19 334 kbps     01:44:23.882    67 450 bytes    404 479 bytes   01:46:49.986
STREAM DIAGNOSTICS:
File            PID             Type            Codec           Language                Seconds                 Bitrate                 Bytes           Packets
----            ---             ----            -----           --------                --------------          --------------          -------------   -----
00006.M2TS      4113 (0x1011)   0x1B            AVC                                     6415,618                24 000                  19 246 718 290  104 691 462
00006.M2TS      4352 (0x1100)   0x86            DTS-HD MA       eng (English)           6415,618                3 393                   2 721 366 680   15 776 000
00006.M2TS      4353 (0x1101)   0x81            AC3             eng (English)           6415,618                448                     359 279 872     2 004 910
00006.M2TS      4354 (0x1102)   0x81            AC3             eng (English)           6415,618                192                     153 981 696     1 002 485
00006.M2TS      4608 (0x1200)   0x90            PGS             eng (English)           6415,618                84                      66 986 320      377 478
00006.M2TS      4609 (0x1201)   0x90            PGS             fra (French)            6415,618                64                      51 402 152      291 105
00006.M2TS      4610 (0x1202)   0x90            PGS             deu (German)            6415,618                67                      54 020 768      305 347
00006.M2TS      4611 (0x1203)   0x90            PGS             ita (Italian)           6415,618                65                      51 840 849      293 477
00006.M2TS      4612 (0x1204)   0x90            PGS             spa (Spanish)           6415,618                70                      56 462 570      318 618
00006.M2TS      4613 (0x1205)   0x90            PGS             por (Portuguese)        6415,618                71                      57 127 604      322 207
00006.M2TS      4614 (0x1206)   0x90            PGS             jpn (Japanese)          6415,618                50                      40 186 388      230 144
QUICK SUMMARY:
Disc Title: Rush.Beyond the Lighted Stage.2010.BD1080p
Disc Size: 38 330 777 742 bytes
Protection: AACS
BD-Java: No
Playlist: 00016.MPLS
Size: 24 159 012 864 bytes
Length: 1:46:55.700
Total Bitrate: 30,12 Mbps
Video: MPEG-4 AVC Video / 24000 kbps / 1080p / 23,976 fps / 16:9 / High Profile 4.1
Audio: English / DTS-HD Master Audio / 5.1 / 48 kHz / 3393 kbps / 24-bit (DTS Core: 5.1 / 48 kHz / 1509 kbps / 24-bit)
Audio: English / Dolby Digital Audio / 5.1 / 48 kHz / 448 kbps / DN -4dB
Audio: English / Dolby Digital Audio / 2.0 / 48 kHz / 192 kbps / DN -4dB
Subtitle: English / 83,528 kbps
Subtitle: French / 64,095 kbps
Subtitle: German / 67,361 kbps
Subtitle: Italian / 64,642 kbps
Subtitle: Spanish / 70,405 kbps
Subtitle: Portuguese / 71,235 kbps
Subtitle: Japanese / 50,110 kbps
********************
PLAYLIST: 00000.MPLS
********************
Код:
Total   Video
Title                                                           Codec   Length  Movie Size      Disc Size       Bitrate Bitrate Main Audio Track                          Secondary Audio Track
-----                                                           ------  ------- --------------  --------------  ------- ------- ------------------                        ---------------------
00000.MPLS                                                      AVC     1:07:09 9 857 826 816   38 330 777 742  19,57   18,00   DD AC3 2.0 192Kbps
Код:
DISC INFO:
Disc Title:     Rush.Beyond the Lighted Stage.2010.BD1080p
Disc Size:      38 330 777 742 bytes
Protection:     AACS
BD-Java:        No
BDInfo:         0.5.8
PLAYLIST REPORT:
Name:                   00000.MPLS
Length:                 1:07:09.108 (h:m:s.ms)
Size:                   9 857 826 816 bytes
Total Bitrate:          19,57 Mbps
VIDEO:
Codec                   Bitrate             Description
-----                   -------             -----------
MPEG-4 AVC Video        17997 kbps          1080p / 23,976 fps / 16:9 / High Profile 4.1
AUDIO:
Codec                           Language        Bitrate         Description
-----                           --------        -------         -----------
Dolby Digital Audio             English         192 kbps        2.0 / 48 kHz / 192 kbps / DN -4dB
Dolby Digital Audio             English         192 kbps        2.0 / 48 kHz / 192 kbps / DN -4dB
Dolby Digital Audio             English         192 kbps        2.0 / 48 kHz / 192 kbps / DN -4dB
FILES:
Name            Time In         Length          Size            Total Bitrate
----            -------         ------          ----            -------------
00011.M2TS      0:00:00.000     0:07:39.459     1 124 216 832   19 575
00012.M2TS      0:07:39.459     0:03:10.648     466 716 672     19 584
00013.M2TS      0:10:50.107     0:02:16.135     333 053 952     19 572
00014.M2TS      0:13:06.243     0:02:31.484     370 335 744     19 558
00023.M2TS      0:15:37.728     0:08:36.807     1 264 447 488   19 573
00016.M2TS      0:24:14.536     0:03:38.134     533 575 680     19 569
00017.M2TS      0:27:52.670     0:02:54.507     426 848 256     19 568
00018.M2TS      0:30:47.178     0:03:22.452     495 304 704     19 572
00019.M2TS      0:34:09.630     0:08:39.769     1 271 881 728   19 576
00020.M2TS      0:42:49.400     0:07:04.340     1 038 231 552   19 574
00021.M2TS      0:49:53.740     0:04:50.164     709 908 480     19 573
00022.M2TS      0:54:43.905     0:12:25.202     1 823 305 728   19 574
CHAPTERS:
Number          Time In         Length          Avg Video Rate  Max 1-Sec Rate  Max 1-Sec Time  Max 5-Sec Rate  Max 5-Sec Time  Max 10Sec Rate  Max 10Sec Time  Avg Frame Size  Max Frame Size  Max Frame Time
------          -------         ------          --------------  --------------  --------------  --------------  --------------  --------------  --------------  --------------  --------------  --------------
1               0:00:00.000     0:07:39.459     17 999 kbps     32 028 kbps     00:02:47.709    23 290 kbps     00:02:45.874    22 397 kbps     00:07:14.100    93 829 bytes    397 204 bytes   00:07:38.249
2               0:07:39.459     0:03:10.648     18 005 kbps     31 684 kbps     00:09:23.104    27 950 kbps     00:09:19.100    26 462 kbps     00:10:29.045    93 872 bytes    466 548 bytes   00:08:43.648
3               0:10:50.107     0:02:16.135     17 997 kbps     32 755 kbps     00:11:51.419    24 155 kbps     00:11:47.540    23 174 kbps     00:11:42.618    93 827 bytes    369 947 bytes   00:12:28.080
4               0:13:06.243     0:02:31.484     17 984 kbps     34 702 kbps     00:14:00.756    32 195 kbps     00:14:23.862    30 288 kbps     00:14:18.857    93 761 bytes    538 050 bytes   00:15:35.225
5               0:15:37.728     0:08:36.807     17 997 kbps     39 362 kbps     00:22:29.514    34 091 kbps     00:22:29.264    27 326 kbps     00:22:25.844    93 828 bytes    425 013 bytes   00:18:41.328
6               0:24:14.536     0:03:38.134     17 995 kbps     28 792 kbps     00:24:35.807    25 067 kbps     00:26:03.728    24 542 kbps     00:26:03.228    93 820 bytes    328 627 bytes   00:27:20.513
7               0:27:52.670     0:02:54.507     17 994 kbps     21 595 kbps     00:29:47.535    20 863 kbps     00:29:47.577    20 232 kbps     00:29:47.535    93 811 bytes    311 846 bytes   00:29:00.113
8               0:30:47.178     0:03:22.452     17 996 kbps     26 145 kbps     00:33:48.484    20 486 kbps     00:33:47.900    19 847 kbps     00:33:47.817    93 821 bytes    215 566 bytes   00:34:07.879
9               0:34:09.630     0:08:39.769     17 999 kbps     27 955 kbps     00:34:37.533    26 663 kbps     00:34:29.859    25 625 kbps     00:34:28.608    93 840 bytes    245 321 bytes   00:42:48.023
10              0:42:49.400     0:07:04.340     17 997 kbps     30 891 kbps     00:46:17.357    28 946 kbps     00:46:23.113    25 785 kbps     00:46:17.274    93 826 bytes    263 017 bytes   00:49:51.571
11              0:49:53.740     0:04:50.164     17 996 kbps     28 800 kbps     00:50:45.167    24 050 kbps     00:51:13.820    23 401 kbps     00:51:08.899    93 824 bytes    300 080 bytes   00:52:46.955
12              0:54:43.905     0:12:25.202     17 999 kbps     25 247 kbps     00:57:05.964    22 097 kbps     00:57:02.085    20 929 kbps     00:54:47.450    93 841 bytes    374 001 bytes   01:01:47.453
STREAM DIAGNOSTICS:
File            PID             Type            Codec           Language                Seconds                 Bitrate                 Bytes           Packets
----            ---             ----            -----           --------                --------------          --------------          -------------   -----
00011.M2TS      4113 (0x1011)   0x1B            AVC                                     459,376                 18 002                  1 033 716 803   5 624 448
00011.M2TS      4352 (0x1100)   0x81            AC3             eng (English)           459,376                 192                     11 029 248      71 805
00011.M2TS      4353 (0x1101)   0x81            AC3             eng (English)           459,376                 192                     11 029 248      71 805
00011.M2TS      4354 (0x1102)   0x81            AC3             eng (English)           459,376                 192                     11 029 248      71 805
00012.M2TS      4113 (0x1011)   0x1B            AVC                                     190,565                 18 013                  429 088 733     2 334 644
00012.M2TS      4352 (0x1100)   0x81            AC3             eng (English)           190,565                 193                     4 594 944       29 915
00012.M2TS      4353 (0x1101)   0x81            AC3             eng (English)           190,565                 193                     4 594 944       29 915
00012.M2TS      4354 (0x1102)   0x81            AC3             eng (English)           190,565                 193                     4 594 944       29 915
00013.M2TS      4113 (0x1011)   0x1B            AVC                                     136,053                 18 008                  306 251 901     1 666 334
00013.M2TS      4352 (0x1100)   0x81            AC3             eng (English)           136,053                 192                     3 264 000       21 250
00013.M2TS      4353 (0x1101)   0x81            AC3             eng (English)           136,053                 192                     3 264 000       21 250
00013.M2TS      4354 (0x1102)   0x81            AC3             eng (English)           136,053                 192                     3 264 000       21 250
00014.M2TS      4113 (0x1011)   0x1B            AVC                                     151,360                 17 999                  340 539 809     1 852 867
00014.M2TS      4352 (0x1100)   0x81            AC3             eng (English)           151,360                 192                     3 628 800       23 625
00014.M2TS      4353 (0x1101)   0x81            AC3             eng (English)           151,360                 192                     3 628 800       23 625
00014.M2TS      4354 (0x1102)   0x81            AC3             eng (English)           151,360                 192                     3 628 800       23 625
00023.M2TS      4113 (0x1011)   0x1B            AVC                                     516,641                 18 003                  1 162 624 597   6 325 801
00023.M2TS      4352 (0x1100)   0x81            AC3             eng (English)           516,641                 192                     12 417 024      80 840
00023.M2TS      4353 (0x1101)   0x81            AC3             eng (English)           516,641                 192                     12 417 024      80 840
00023.M2TS      4354 (0x1102)   0x81            AC3             eng (English)           516,641                 192                     12 417 024      80 840
00016.M2TS      4113 (0x1011)   0x1B            AVC                                     218,009                 18 006                  490 677 255     2 669 755
00016.M2TS      4352 (0x1100)   0x81            AC3             eng (English)           218,009                 192                     5 220 864       33 990
00016.M2TS      4353 (0x1101)   0x81            AC3             eng (English)           218,009                 192                     5 220 864       33 990
00016.M2TS      4354 (0x1102)   0x81            AC3             eng (English)           218,009                 192                     5 220 864       33 990
00017.M2TS      4113 (0x1011)   0x1B            AVC                                     174,383                 18 007                  392 505 582     2 135 633
00017.M2TS      4352 (0x1100)   0x81            AC3             eng (English)           174,383                 192                     4 181 760       27 225
00017.M2TS      4353 (0x1101)   0x81            AC3             eng (English)           174,383                 192                     4 181 760       27 225
00017.M2TS      4354 (0x1102)   0x81            AC3             eng (English)           174,383                 192                     4 181 760       27 225
00018.M2TS      4113 (0x1011)   0x1B            AVC                                     202,327                 18 007                  455 406 067     2 477 865
00018.M2TS      4352 (0x1100)   0x81            AC3             eng (English)           202,327                 192                     4 865 280       31 675
00018.M2TS      4353 (0x1101)   0x81            AC3             eng (English)           202,327                 192                     4 865 280       31 675
00018.M2TS      4354 (0x1102)   0x81            AC3             eng (English)           202,327                 192                     4 865 280       31 675
00019.M2TS      4113 (0x1011)   0x1B            AVC                                     519,644                 18 004                  1 169 428 793   6 362 887
00019.M2TS      4352 (0x1100)   0x81            AC3             eng (English)           519,644                 192                     12 493 824      81 340
00019.M2TS      4353 (0x1101)   0x81            AC3             eng (English)           519,644                 192                     12 493 824      81 340
00019.M2TS      4354 (0x1102)   0x81            AC3             eng (English)           519,644                 192                     12 493 824      81 340
00020.M2TS      4113 (0x1011)   0x1B            AVC                                     424,174                 18 004                  954 588 297     5 193 918
00020.M2TS      4352 (0x1100)   0x81            AC3             eng (English)           424,174                 192                     10 202 880      66 425
00020.M2TS      4353 (0x1101)   0x81            AC3             eng (English)           424,174                 192                     10 202 880      66 425
00020.M2TS      4354 (0x1102)   0x81            AC3             eng (English)           424,174                 192                     10 202 880      66 425
00021.M2TS      4113 (0x1011)   0x1B            AVC                                     290,040                 18 004                  652 730 286     3 551 524
00021.M2TS      4352 (0x1100)   0x81            AC3             eng (English)           290,040                 192                     6 971 136       45 385
00021.M2TS      4353 (0x1101)   0x81            AC3             eng (English)           290,040                 192                     6 971 136       45 385
00021.M2TS      4354 (0x1102)   0x81            AC3             eng (English)           290,040                 192                     6 971 136       45 385
00022.M2TS      4113 (0x1011)   0x1B            AVC                                     745,078                 18 002                  1 676 574 517   9 122 200
00022.M2TS      4352 (0x1100)   0x81            AC3             eng (English)           745,078                 192                     17 879 040      116 400
00022.M2TS      4353 (0x1101)   0x81            AC3             eng (English)           745,078                 192                     17 879 040      116 400
00022.M2TS      4354 (0x1102)   0x81            AC3             eng (English)           745,078                 192                     17 879 040      116 400
QUICK SUMMARY:
Disc Title: Rush.Beyond the Lighted Stage.2010.BD1080p
Disc Size: 38 330 777 742 bytes
Protection: AACS
BD-Java: No
Playlist: 00000.MPLS
Size: 9 857 826 816 bytes
Length: 1:07:09.108
Total Bitrate: 19,57 Mbps
Video: MPEG-4 AVC Video / 17997 kbps / 1080p / 23,976 fps / 16:9 / High Profile 4.1
Audio: English / Dolby Digital Audio / 2.0 / 48 kHz / 192 kbps / DN -4dB
Audio: English / Dolby Digital Audio / 2.0 / 48 kHz / 192 kbps / DN -4dB
Audio: English / Dolby Digital Audio / 2.0 / 48 kHz / 192 kbps / DN -4dB
********************
PLAYLIST: 00012.MPLS
********************
Код:
Total   Video
Title                                                           Codec   Length  Movie Size      Disc Size       Bitrate Bitrate Main Audio Track                          Secondary Audio Track
-----                                                           ------  ------- --------------  --------------  ------- ------- ------------------                        ---------------------
00012.MPLS                                                      AVC     0:12:25 1 823 305 728   38 330 777 742  19,57   18,00   DD AC3 2.0 192Kbps
Код:
DISC INFO:
Disc Title:     Rush.Beyond the Lighted Stage.2010.BD1080p
Disc Size:      38 330 777 742 bytes
Protection:     AACS
BD-Java:        No
BDInfo:         0.5.8
PLAYLIST REPORT:
Name:                   00012.MPLS
Length:                 0:12:25.202 (h:m:s.ms)
Size:                   1 823 305 728 bytes
Total Bitrate:          19,57 Mbps
VIDEO:
Codec                   Bitrate             Description
-----                   -------             -----------
MPEG-4 AVC Video        17999 kbps          1080p / 23,976 fps / 16:9 / High Profile 4.1
AUDIO:
Codec                           Language        Bitrate         Description
-----                           --------        -------         -----------
Dolby Digital Audio             English         192 kbps        2.0 / 48 kHz / 192 kbps / DN -4dB
Dolby Digital Audio             English         192 kbps        2.0 / 48 kHz / 192 kbps / DN -4dB
Dolby Digital Audio             English         192 kbps        2.0 / 48 kHz / 192 kbps / DN -4dB
FILES:
Name            Time In         Length          Size            Total Bitrate
----            -------         ------          ----            -------------
00022.M2TS      0:00:00.000     0:12:25.202     1 823 305 728   19 574
CHAPTERS:
Number          Time In         Length          Avg Video Rate  Max 1-Sec Rate  Max 1-Sec Time  Max 5-Sec Rate  Max 5-Sec Time  Max 10Sec Rate  Max 10Sec Time  Avg Frame Size  Max Frame Size  Max Frame Time
------          -------         ------          --------------  --------------  --------------  --------------  --------------  --------------  --------------  --------------  --------------  --------------
1               0:00:00.000     0:12:25.202     17 999 kbps     25 247 kbps     00:02:22.058    22 097 kbps     00:02:18.179    20 929 kbps     00:00:03.545    93 836 bytes    374 001 bytes   00:07:03.548
STREAM DIAGNOSTICS:
File            PID             Type            Codec           Language                Seconds                 Bitrate                 Bytes           Packets
----            ---             ----            -----           --------                --------------          --------------          -------------   -----
00022.M2TS      4113 (0x1011)   0x1B            AVC                                     745,078                 18 002                  1 676 574 517   9 122 200
00022.M2TS      4352 (0x1100)   0x81            AC3             eng (English)           745,078                 192                     17 879 040      116 400
00022.M2TS      4353 (0x1101)   0x81            AC3             eng (English)           745,078                 192                     17 879 040      116 400
00022.M2TS      4354 (0x1102)   0x81            AC3             eng (English)           745,078                 192                     17 879 040      116 400
QUICK SUMMARY:
Disc Title: Rush.Beyond the Lighted Stage.2010.BD1080p
Disc Size: 38 330 777 742 bytes
Protection: AACS
BD-Java: No
Playlist: 00012.MPLS
Size: 1 823 305 728 bytes
Length: 0:12:25.202
Total Bitrate: 19,57 Mbps
Video: MPEG-4 AVC Video / 17999 kbps / 1080p / 23,976 fps / 16:9 / High Profile 4.1
Audio: English / Dolby Digital Audio / 2.0 / 48 kHz / 192 kbps / DN -4dB
Audio: English / Dolby Digital Audio / 2.0 / 48 kHz / 192 kbps / DN -4dB
Audio: English / Dolby Digital Audio / 2.0 / 48 kHz / 192 kbps / DN -4dB
********************
PLAYLIST: 00009.MPLS
********************
Код:
Total   Video
Title                                                           Codec   Length  Movie Size      Disc Size       Bitrate Bitrate Main Audio Track                          Secondary Audio Track
-----                                                           ------  ------- --------------  --------------  ------- ------- ------------------                        ---------------------
00009.MPLS                                                      AVC     0:08:39 1 271 881 728   38 330 777 742  19,58   18,00   DD AC3 2.0 192Kbps
Код:
DISC INFO:
Disc Title:     Rush.Beyond the Lighted Stage.2010.BD1080p
Disc Size:      38 330 777 742 bytes
Protection:     AACS
BD-Java:        No
BDInfo:         0.5.8
PLAYLIST REPORT:
Name:                   00009.MPLS
Length:                 0:08:39.769 (h:m:s.ms)
Size:                   1 271 881 728 bytes
Total Bitrate:          19,58 Mbps
VIDEO:
Codec                   Bitrate             Description
-----                   -------             -----------
MPEG-4 AVC Video        17999 kbps          1080p / 23,976 fps / 16:9 / High Profile 4.1
AUDIO:
Codec                           Language        Bitrate         Description
-----                           --------        -------         -----------
Dolby Digital Audio             English         192 kbps        2.0 / 48 kHz / 192 kbps / DN -4dB
Dolby Digital Audio             English         192 kbps        2.0 / 48 kHz / 192 kbps / DN -4dB
Dolby Digital Audio             English         192 kbps        2.0 / 48 kHz / 192 kbps / DN -4dB
FILES:
Name            Time In         Length          Size            Total Bitrate
----            -------         ------          ----            -------------
00019.M2TS      0:00:00.000     0:08:39.769     1 271 881 728   19 576
CHAPTERS:
Number          Time In         Length          Avg Video Rate  Max 1-Sec Rate  Max 1-Sec Time  Max 5-Sec Rate  Max 5-Sec Time  Max 10Sec Rate  Max 10Sec Time  Avg Frame Size  Max Frame Size  Max Frame Time
------          -------         ------          --------------  --------------  --------------  --------------  --------------  --------------  --------------  --------------  --------------  --------------
1               0:00:00.000     0:08:39.769     17 999 kbps     27 955 kbps     00:00:27.902    26 663 kbps     00:00:20.228    25 625 kbps     00:00:18.977    93 840 bytes    245 321 bytes   00:08:38.392
STREAM DIAGNOSTICS:
File            PID             Type            Codec           Language                Seconds                 Bitrate                 Bytes           Packets
----            ---             ----            -----           --------                --------------          --------------          -------------   -----
00019.M2TS      4113 (0x1011)   0x1B            AVC                                     519,644                 18 004                  1 169 428 793   6 362 887
00019.M2TS      4352 (0x1100)   0x81            AC3             eng (English)           519,644                 192                     12 493 824      81 340
00019.M2TS      4353 (0x1101)   0x81            AC3             eng (English)           519,644                 192                     12 493 824      81 340
00019.M2TS      4354 (0x1102)   0x81            AC3             eng (English)           519,644                 192                     12 493 824      81 340
QUICK SUMMARY:
Disc Title: Rush.Beyond the Lighted Stage.2010.BD1080p
Disc Size: 38 330 777 742 bytes
Protection: AACS
BD-Java: No
Playlist: 00009.MPLS
Size: 1 271 881 728 bytes
Length: 0:08:39.769
Total Bitrate: 19,58 Mbps
Video: MPEG-4 AVC Video / 17999 kbps / 1080p / 23,976 fps / 16:9 / High Profile 4.1
Audio: English / Dolby Digital Audio / 2.0 / 48 kHz / 192 kbps / DN -4dB
Audio: English / Dolby Digital Audio / 2.0 / 48 kHz / 192 kbps / DN -4dB
Audio: English / Dolby Digital Audio / 2.0 / 48 kHz / 192 kbps / DN -4dB
********************
PLAYLIST: 00005.MPLS
********************
Код:
Total   Video
Title                                                           Codec   Length  Movie Size      Disc Size       Bitrate Bitrate Main Audio Track                          Secondary Audio Track
-----                                                           ------  ------- --------------  --------------  ------- ------- ------------------                        ---------------------
00005.MPLS                                                      AVC     0:08:36 1 264 447 488   38 330 777 742  19,57   18,00   DD AC3 2.0 192Kbps
Код:
DISC INFO:
Disc Title:     Rush.Beyond the Lighted Stage.2010.BD1080p
Disc Size:      38 330 777 742 bytes
Protection:     AACS
BD-Java:        No
BDInfo:         0.5.8
PLAYLIST REPORT:
Name:                   00005.MPLS
Length:                 0:08:36.807 (h:m:s.ms)
Size:                   1 264 447 488 bytes
Total Bitrate:          19,57 Mbps
VIDEO:
Codec                   Bitrate             Description
-----                   -------             -----------
MPEG-4 AVC Video        17997 kbps          1080p / 23,976 fps / 16:9 / High Profile 4.1
AUDIO:
Codec                           Language        Bitrate         Description
-----                           --------        -------         -----------
Dolby Digital Audio             English         192 kbps        2.0 / 48 kHz / 192 kbps / DN -4dB
Dolby Digital Audio             English         192 kbps        2.0 / 48 kHz / 192 kbps / DN -4dB
Dolby Digital Audio             English         192 kbps        2.0 / 48 kHz / 192 kbps / DN -4dB
FILES:
Name            Time In         Length          Size            Total Bitrate
----            -------         ------          ----            -------------
00023.M2TS      0:00:00.000     0:08:36.807     1 264 447 488   19 573
CHAPTERS:
Number          Time In         Length          Avg Video Rate  Max 1-Sec Rate  Max 1-Sec Time  Max 5-Sec Rate  Max 5-Sec Time  Max 10Sec Rate  Max 10Sec Time  Avg Frame Size  Max Frame Size  Max Frame Time
------          -------         ------          --------------  --------------  --------------  --------------  --------------  --------------  --------------  --------------  --------------  --------------
1               0:00:00.000     0:08:36.807     17 997 kbps     39 362 kbps     00:06:51.786    34 091 kbps     00:06:51.536    27 326 kbps     00:06:48.116    93 828 bytes    425 013 bytes   00:03:03.600
STREAM DIAGNOSTICS:
File            PID             Type            Codec           Language                Seconds                 Bitrate                 Bytes           Packets
----            ---             ----            -----           --------                --------------          --------------          -------------   -----
00023.M2TS      4113 (0x1011)   0x1B            AVC                                     516,641                 18 003                  1 162 624 597   6 325 801
00023.M2TS      4352 (0x1100)   0x81            AC3             eng (English)           516,641                 192                     12 417 024      80 840
00023.M2TS      4353 (0x1101)   0x81            AC3             eng (English)           516,641                 192                     12 417 024      80 840
00023.M2TS      4354 (0x1102)   0x81            AC3             eng (English)           516,641                 192                     12 417 024      80 840
QUICK SUMMARY:
Disc Title: Rush.Beyond the Lighted Stage.2010.BD1080p
Disc Size: 38 330 777 742 bytes
Protection: AACS
BD-Java: No
Playlist: 00005.MPLS
Size: 1 264 447 488 bytes
Length: 0:08:36.807
Total Bitrate: 19,57 Mbps
Video: MPEG-4 AVC Video / 17997 kbps / 1080p / 23,976 fps / 16:9 / High Profile 4.1
Audio: English / Dolby Digital Audio / 2.0 / 48 kHz / 192 kbps / DN -4dB
Audio: English / Dolby Digital Audio / 2.0 / 48 kHz / 192 kbps / DN -4dB
Audio: English / Dolby Digital Audio / 2.0 / 48 kHz / 192 kbps / DN -4dB
********************
PLAYLIST: 00001.MPLS
********************
Код:
Total   Video
Title                                                           Codec   Length  Movie Size      Disc Size       Bitrate Bitrate Main Audio Track                          Secondary Audio Track
-----                                                           ------  ------- --------------  --------------  ------- ------- ------------------                        ---------------------
00001.MPLS                                                      AVC     0:07:39 1 124 216 832   38 330 777 742  19,57   18,00   DD AC3 2.0 192Kbps
Код:
DISC INFO:
Disc Title:     Rush.Beyond the Lighted Stage.2010.BD1080p
Disc Size:      38 330 777 742 bytes
Protection:     AACS
BD-Java:        No
BDInfo:         0.5.8
PLAYLIST REPORT:
Name:                   00001.MPLS
Length:                 0:07:39.459 (h:m:s.ms)
Size:                   1 124 216 832 bytes
Total Bitrate:          19,57 Mbps
VIDEO:
Codec                   Bitrate             Description
-----                   -------             -----------
MPEG-4 AVC Video        17999 kbps          1080p / 23,976 fps / 16:9 / High Profile 4.1
AUDIO:
Codec                           Language        Bitrate         Description
-----                           --------        -------         -----------
Dolby Digital Audio             English         192 kbps        2.0 / 48 kHz / 192 kbps / DN -4dB
Dolby Digital Audio             English         192 kbps        2.0 / 48 kHz / 192 kbps / DN -4dB
Dolby Digital Audio             English         192 kbps        2.0 / 48 kHz / 192 kbps / DN -4dB
FILES:
Name            Time In         Length          Size            Total Bitrate
----            -------         ------          ----            -------------
00011.M2TS      0:00:00.000     0:07:39.459     1 124 216 832   19 575
CHAPTERS:
Number          Time In         Length          Avg Video Rate  Max 1-Sec Rate  Max 1-Sec Time  Max 5-Sec Rate  Max 5-Sec Time  Max 10Sec Rate  Max 10Sec Time  Avg Frame Size  Max Frame Size  Max Frame Time
------          -------         ------          --------------  --------------  --------------  --------------  --------------  --------------  --------------  --------------  --------------  --------------
1               0:00:00.000     0:07:39.459     17 999 kbps     32 028 kbps     00:02:47.709    23 290 kbps     00:02:45.874    22 397 kbps     00:07:14.100    93 838 bytes    397 204 bytes   00:07:38.249
STREAM DIAGNOSTICS:
File            PID             Type            Codec           Language                Seconds                 Bitrate                 Bytes           Packets
----            ---             ----            -----           --------                --------------          --------------          -------------   -----
00011.M2TS      4113 (0x1011)   0x1B            AVC                                     459,376                 18 002                  1 033 716 803   5 624 448
00011.M2TS      4352 (0x1100)   0x81            AC3             eng (English)           459,376                 192                     11 029 248      71 805
00011.M2TS      4353 (0x1101)   0x81            AC3             eng (English)           459,376                 192                     11 029 248      71 805
00011.M2TS      4354 (0x1102)   0x81            AC3             eng (English)           459,376                 192                     11 029 248      71 805
QUICK SUMMARY:
Disc Title: Rush.Beyond the Lighted Stage.2010.BD1080p
Disc Size: 38 330 777 742 bytes
Protection: AACS
BD-Java: No
Playlist: 00001.MPLS
Size: 1 124 216 832 bytes
Length: 0:07:39.459
Total Bitrate: 19,57 Mbps
Video: MPEG-4 AVC Video / 17999 kbps / 1080p / 23,976 fps / 16:9 / High Profile 4.1
Audio: English / Dolby Digital Audio / 2.0 / 48 kHz / 192 kbps / DN -4dB
Audio: English / Dolby Digital Audio / 2.0 / 48 kHz / 192 kbps / DN -4dB
Audio: English / Dolby Digital Audio / 2.0 / 48 kHz / 192 kbps / DN -4dB
********************
PLAYLIST: 00010.MPLS
********************
Код:
Total   Video
Title                                                           Codec   Length  Movie Size      Disc Size       Bitrate Bitrate Main Audio Track                          Secondary Audio Track
-----                                                           ------  ------- --------------  --------------  ------- ------- ------------------                        ---------------------
00010.MPLS                                                      AVC     0:07:04 1 038 231 552   38 330 777 742  19,57   18,00   DD AC3 2.0 192Kbps
Код:
DISC INFO:
Disc Title:     Rush.Beyond the Lighted Stage.2010.BD1080p
Disc Size:      38 330 777 742 bytes
Protection:     AACS
BD-Java:        No
BDInfo:         0.5.8
PLAYLIST REPORT:
Name:                   00010.MPLS
Length:                 0:07:04.340 (h:m:s.ms)
Size:                   1 038 231 552 bytes
Total Bitrate:          19,57 Mbps
VIDEO:
Codec                   Bitrate             Description
-----                   -------             -----------
MPEG-4 AVC Video        17997 kbps          1080p / 23,976 fps / 16:9 / High Profile 4.1
AUDIO:
Codec                           Language        Bitrate         Description
-----                           --------        -------         -----------
Dolby Digital Audio             English         192 kbps        2.0 / 48 kHz / 192 kbps / DN -4dB
Dolby Digital Audio             English         192 kbps        2.0 / 48 kHz / 192 kbps / DN -4dB
Dolby Digital Audio             English         192 kbps        2.0 / 48 kHz / 192 kbps / DN -4dB
FILES:
Name            Time In         Length          Size            Total Bitrate
----            -------         ------          ----            -------------
00020.M2TS      0:00:00.000     0:07:04.340     1 038 231 552   19 574
CHAPTERS:
Number          Time In         Length          Avg Video Rate  Max 1-Sec Rate  Max 1-Sec Time  Max 5-Sec Rate  Max 5-Sec Time  Max 10Sec Rate  Max 10Sec Time  Avg Frame Size  Max Frame Size  Max Frame Time
------          -------         ------          --------------  --------------  --------------  --------------  --------------  --------------  --------------  --------------  --------------  --------------
1               0:00:00.000     0:07:04.340     17 997 kbps     30 891 kbps     00:03:27.957    28 946 kbps     00:03:33.713    25 785 kbps     00:03:27.874    93 826 bytes    263 017 bytes   00:07:02.171
STREAM DIAGNOSTICS:
File            PID             Type            Codec           Language                Seconds                 Bitrate                 Bytes           Packets
----            ---             ----            -----           --------                --------------          --------------          -------------   -----
00020.M2TS      4113 (0x1011)   0x1B            AVC                                     424,174                 18 004                  954 588 297     5 193 918
00020.M2TS      4352 (0x1100)   0x81            AC3             eng (English)           424,174                 192                     10 202 880      66 425
00020.M2TS      4353 (0x1101)   0x81            AC3             eng (English)           424,174                 192                     10 202 880      66 425
00020.M2TS      4354 (0x1102)   0x81            AC3             eng (English)           424,174                 192                     10 202 880      66 425
QUICK SUMMARY:
Disc Title: Rush.Beyond the Lighted Stage.2010.BD1080p
Disc Size: 38 330 777 742 bytes
Protection: AACS
BD-Java: No
Playlist: 00010.MPLS
Size: 1 038 231 552 bytes
Length: 0:07:04.340
Total Bitrate: 19,57 Mbps
Video: MPEG-4 AVC Video / 17997 kbps / 1080p / 23,976 fps / 16:9 / High Profile 4.1
Audio: English / Dolby Digital Audio / 2.0 / 48 kHz / 192 kbps / DN -4dB
Audio: English / Dolby Digital Audio / 2.0 / 48 kHz / 192 kbps / DN -4dB
Audio: English / Dolby Digital Audio / 2.0 / 48 kHz / 192 kbps / DN -4dB
********************
PLAYLIST: 00011.MPLS
********************
Код:
Total   Video
Title                                                           Codec   Length  Movie Size      Disc Size       Bitrate Bitrate Main Audio Track                          Secondary Audio Track
-----                                                           ------  ------- --------------  --------------  ------- ------- ------------------                        ---------------------
00011.MPLS                                                      AVC     0:04:50 709 908 480     38 330 777 742  19,57   18,00   DD AC3 2.0 192Kbps
Код:
DISC INFO:
Disc Title:     Rush.Beyond the Lighted Stage.2010.BD1080p
Disc Size:      38 330 777 742 bytes
Protection:     AACS
BD-Java:        No
BDInfo:         0.5.8
PLAYLIST REPORT:
Name:                   00011.MPLS
Length:                 0:04:50.164 (h:m:s.ms)
Size:                   709 908 480 bytes
Total Bitrate:          19,57 Mbps
VIDEO:
Codec                   Bitrate             Description
-----                   -------             -----------
MPEG-4 AVC Video        17996 kbps          1080p / 23,976 fps / 16:9 / High Profile 4.1
AUDIO:
Codec                           Language        Bitrate         Description
-----                           --------        -------         -----------
Dolby Digital Audio             English         192 kbps        2.0 / 48 kHz / 192 kbps / DN -4dB
Dolby Digital Audio             English         192 kbps        2.0 / 48 kHz / 192 kbps / DN -4dB
Dolby Digital Audio             English         192 kbps        2.0 / 48 kHz / 192 kbps / DN -4dB
FILES:
Name            Time In         Length          Size            Total Bitrate
----            -------         ------          ----            -------------
00021.M2TS      0:00:00.000     0:04:50.164     709 908 480     19 573
CHAPTERS:
Number          Time In         Length          Avg Video Rate  Max 1-Sec Rate  Max 1-Sec Time  Max 5-Sec Rate  Max 5-Sec Time  Max 10Sec Rate  Max 10Sec Time  Avg Frame Size  Max Frame Size  Max Frame Time
------          -------         ------          --------------  --------------  --------------  --------------  --------------  --------------  --------------  --------------  --------------  --------------
1               0:00:00.000     0:04:50.164     17 996 kbps     28 800 kbps     00:00:51.426    24 050 kbps     00:01:20.080    23 401 kbps     00:01:15.158    93 824 bytes    300 080 bytes   00:02:53.214
STREAM DIAGNOSTICS:
File            PID             Type            Codec           Language                Seconds                 Bitrate                 Bytes           Packets
----            ---             ----            -----           --------                --------------          --------------          -------------   -----
00021.M2TS      4113 (0x1011)   0x1B            AVC                                     290,040                 18 004                  652 730 286     3 551 524
00021.M2TS      4352 (0x1100)   0x81            AC3             eng (English)           290,040                 192                     6 971 136       45 385
00021.M2TS      4353 (0x1101)   0x81            AC3             eng (English)           290,040                 192                     6 971 136       45 385
00021.M2TS      4354 (0x1102)   0x81            AC3             eng (English)           290,040                 192                     6 971 136       45 385
QUICK SUMMARY:
Disc Title: Rush.Beyond the Lighted Stage.2010.BD1080p
Disc Size: 38 330 777 742 bytes
Protection: AACS
BD-Java: No
Playlist: 00011.MPLS
Size: 709 908 480 bytes
Length: 0:04:50.164
Total Bitrate: 19,57 Mbps
Video: MPEG-4 AVC Video / 17996 kbps / 1080p / 23,976 fps / 16:9 / High Profile 4.1
Audio: English / Dolby Digital Audio / 2.0 / 48 kHz / 192 kbps / DN -4dB
Audio: English / Dolby Digital Audio / 2.0 / 48 kHz / 192 kbps / DN -4dB
Audio: English / Dolby Digital Audio / 2.0 / 48 kHz / 192 kbps / DN -4dB
********************
PLAYLIST: 00006.MPLS
********************
Код:
Total   Video
Title                                                           Codec   Length  Movie Size      Disc Size       Bitrate Bitrate Main Audio Track                          Secondary Audio Track
-----                                                           ------  ------- --------------  --------------  ------- ------- ------------------                        ---------------------
00006.MPLS                                                      AVC     0:03:38 533 575 680     38 330 777 742  19,57   18,00   DD AC3 2.0 192Kbps
Код:
DISC INFO:
Disc Title:     Rush.Beyond the Lighted Stage.2010.BD1080p
Disc Size:      38 330 777 742 bytes
Protection:     AACS
BD-Java:        No
BDInfo:         0.5.8
PLAYLIST REPORT:
Name:                   00006.MPLS
Length:                 0:03:38.134 (h:m:s.ms)
Size:                   533 575 680 bytes
Total Bitrate:          19,57 Mbps
VIDEO:
Codec                   Bitrate             Description
-----                   -------             -----------
MPEG-4 AVC Video        17995 kbps          1080p / 23,976 fps / 16:9 / High Profile 4.1
AUDIO:
Codec                           Language        Bitrate         Description
-----                           --------        -------         -----------
Dolby Digital Audio             English         192 kbps        2.0 / 48 kHz / 192 kbps / DN -4dB
Dolby Digital Audio             English         192 kbps        2.0 / 48 kHz / 192 kbps / DN -4dB
Dolby Digital Audio             English         192 kbps        2.0 / 48 kHz / 192 kbps / DN -4dB
FILES:
Name            Time In         Length          Size            Total Bitrate
----            -------         ------          ----            -------------
00016.M2TS      0:00:00.000     0:03:38.134     533 575 680     19 569
CHAPTERS:
Number          Time In         Length          Avg Video Rate  Max 1-Sec Rate  Max 1-Sec Time  Max 5-Sec Rate  Max 5-Sec Time  Max 10Sec Rate  Max 10Sec Time  Avg Frame Size  Max Frame Size  Max Frame Time
------          -------         ------          --------------  --------------  --------------  --------------  --------------  --------------  --------------  --------------  --------------  --------------
1               0:00:00.000     0:03:38.134     17 995 kbps     28 792 kbps     00:00:21.271    25 067 kbps     00:01:49.192    24 542 kbps     00:01:48.691    93 820 bytes    328 627 bytes   00:03:05.977
STREAM DIAGNOSTICS:
File            PID             Type            Codec           Language                Seconds                 Bitrate                 Bytes           Packets
----            ---             ----            -----           --------                --------------          --------------          -------------   -----
00016.M2TS      4113 (0x1011)   0x1B            AVC                                     218,009                 18 006                  490 677 255     2 669 755
00016.M2TS      4352 (0x1100)   0x81            AC3             eng (English)           218,009                 192                     5 220 864       33 990
00016.M2TS      4353 (0x1101)   0x81            AC3             eng (English)           218,009                 192                     5 220 864       33 990
00016.M2TS      4354 (0x1102)   0x81            AC3             eng (English)           218,009                 192                     5 220 864       33 990
QUICK SUMMARY:
Disc Title: Rush.Beyond the Lighted Stage.2010.BD1080p
Disc Size: 38 330 777 742 bytes
Protection: AACS
BD-Java: No
Playlist: 00006.MPLS
Size: 533 575 680 bytes
Length: 0:03:38.134
Total Bitrate: 19,57 Mbps
Video: MPEG-4 AVC Video / 17995 kbps / 1080p / 23,976 fps / 16:9 / High Profile 4.1
Audio: English / Dolby Digital Audio / 2.0 / 48 kHz / 192 kbps / DN -4dB
Audio: English / Dolby Digital Audio / 2.0 / 48 kHz / 192 kbps / DN -4dB
Audio: English / Dolby Digital Audio / 2.0 / 48 kHz / 192 kbps / DN -4dB
********************
PLAYLIST: 00008.MPLS
********************
Код:
Total   Video
Title                                                           Codec   Length  Movie Size      Disc Size       Bitrate Bitrate Main Audio Track                          Secondary Audio Track
-----                                                           ------  ------- --------------  --------------  ------- ------- ------------------                        ---------------------
00008.MPLS                                                      AVC     0:03:22 495 304 704     38 330 777 742  19,57   18,00   DD AC3 2.0 192Kbps
Код:
DISC INFO:
Disc Title:     Rush.Beyond the Lighted Stage.2010.BD1080p
Disc Size:      38 330 777 742 bytes
Protection:     AACS
BD-Java:        No
BDInfo:         0.5.8
PLAYLIST REPORT:
Name:                   00008.MPLS
Length:                 0:03:22.452 (h:m:s.ms)
Size:                   495 304 704 bytes
Total Bitrate:          19,57 Mbps
VIDEO:
Codec                   Bitrate             Description
-----                   -------             -----------
MPEG-4 AVC Video        17996 kbps          1080p / 23,976 fps / 16:9 / High Profile 4.1
AUDIO:
Codec                           Language        Bitrate         Description
-----                           --------        -------         -----------
Dolby Digital Audio             English         192 kbps        2.0 / 48 kHz / 192 kbps / DN -4dB
Dolby Digital Audio             English         192 kbps        2.0 / 48 kHz / 192 kbps / DN -4dB
Dolby Digital Audio             English         192 kbps        2.0 / 48 kHz / 192 kbps / DN -4dB
FILES:
Name            Time In         Length          Size            Total Bitrate
----            -------         ------          ----            -------------
00018.M2TS      0:00:00.000     0:03:22.452     495 304 704     19 572
CHAPTERS:
Number          Time In         Length          Avg Video Rate  Max 1-Sec Rate  Max 1-Sec Time  Max 5-Sec Rate  Max 5-Sec Time  Max 10Sec Rate  Max 10Sec Time  Avg Frame Size  Max Frame Size  Max Frame Time
------          -------         ------          --------------  --------------  --------------  --------------  --------------  --------------  --------------  --------------  --------------  --------------
1               0:00:00.000     0:03:22.452     17 996 kbps     26 145 kbps     00:03:01.306    20 486 kbps     00:03:00.722    19 847 kbps     00:03:00.638    93 821 bytes    215 566 bytes   00:03:20.700
STREAM DIAGNOSTICS:
File            PID             Type            Codec           Language                Seconds                 Bitrate                 Bytes           Packets
----            ---             ----            -----           --------                --------------          --------------          -------------   -----
00018.M2TS      4113 (0x1011)   0x1B            AVC                                     202,327                 18 007                  455 406 067     2 477 865
00018.M2TS      4352 (0x1100)   0x81            AC3             eng (English)           202,327                 192                     4 865 280       31 675
00018.M2TS      4353 (0x1101)   0x81            AC3             eng (English)           202,327                 192                     4 865 280       31 675
00018.M2TS      4354 (0x1102)   0x81            AC3             eng (English)           202,327                 192                     4 865 280       31 675
QUICK SUMMARY:
Disc Title: Rush.Beyond the Lighted Stage.2010.BD1080p
Disc Size: 38 330 777 742 bytes
Protection: AACS
BD-Java: No
Playlist: 00008.MPLS
Size: 495 304 704 bytes
Length: 0:03:22.452
Total Bitrate: 19,57 Mbps
Video: MPEG-4 AVC Video / 17996 kbps / 1080p / 23,976 fps / 16:9 / High Profile 4.1
Audio: English / Dolby Digital Audio / 2.0 / 48 kHz / 192 kbps / DN -4dB
Audio: English / Dolby Digital Audio / 2.0 / 48 kHz / 192 kbps / DN -4dB
Audio: English / Dolby Digital Audio / 2.0 / 48 kHz / 192 kbps / DN -4dB
********************
PLAYLIST: 00002.MPLS
********************
Код:
Total   Video
Title                                                           Codec   Length  Movie Size      Disc Size       Bitrate Bitrate Main Audio Track                          Secondary Audio Track
-----                                                           ------  ------- --------------  --------------  ------- ------- ------------------                        ---------------------
00002.MPLS                                                      AVC     0:03:10 466 716 672     38 330 777 742  19,58   18,01   DD AC3 2.0 192Kbps
Код:
DISC INFO:
Disc Title:     Rush.Beyond the Lighted Stage.2010.BD1080p
Disc Size:      38 330 777 742 bytes
Protection:     AACS
BD-Java:        No
BDInfo:         0.5.8
PLAYLIST REPORT:
Name:                   00002.MPLS
Length:                 0:03:10.648 (h:m:s.ms)
Size:                   466 716 672 bytes
Total Bitrate:          19,58 Mbps
VIDEO:
Codec                   Bitrate             Description
-----                   -------             -----------
MPEG-4 AVC Video        18005 kbps          1080p / 23,976 fps / 16:9 / High Profile 4.1
AUDIO:
Codec                           Language        Bitrate         Description
-----                           --------        -------         -----------
Dolby Digital Audio             English         192 kbps        2.0 / 48 kHz / 192 kbps / DN -4dB
Dolby Digital Audio             English         192 kbps        2.0 / 48 kHz / 192 kbps / DN -4dB
Dolby Digital Audio             English         192 kbps        2.0 / 48 kHz / 192 kbps / DN -4dB
FILES:
Name            Time In         Length          Size            Total Bitrate
----            -------         ------          ----            -------------
00012.M2TS      0:00:00.000     0:03:10.648     466 716 672     19 584
CHAPTERS:
Number          Time In         Length          Avg Video Rate  Max 1-Sec Rate  Max 1-Sec Time  Max 5-Sec Rate  Max 5-Sec Time  Max 10Sec Rate  Max 10Sec Time  Avg Frame Size  Max Frame Size  Max Frame Time
------          -------         ------          --------------  --------------  --------------  --------------  --------------  --------------  --------------  --------------  --------------  --------------
1               0:00:00.000     0:03:10.648     18 005 kbps     31 684 kbps     00:01:43.645    27 950 kbps     00:01:39.641    26 462 kbps     00:02:49.586    93 872 bytes    466 548 bytes   00:01:04.189
STREAM DIAGNOSTICS:
File            PID             Type            Codec           Language                Seconds                 Bitrate                 Bytes           Packets
----            ---             ----            -----           --------                --------------          --------------          -------------   -----
00012.M2TS      4113 (0x1011)   0x1B            AVC                                     190,565                 18 013                  429 088 733     2 334 644
00012.M2TS      4352 (0x1100)   0x81            AC3             eng (English)           190,565                 193                     4 594 944       29 915
00012.M2TS      4353 (0x1101)   0x81            AC3             eng (English)           190,565                 193                     4 594 944       29 915
00012.M2TS      4354 (0x1102)   0x81            AC3             eng (English)           190,565                 193                     4 594 944       29 915
QUICK SUMMARY:
Disc Title: Rush.Beyond the Lighted Stage.2010.BD1080p
Disc Size: 38 330 777 742 bytes
Protection: AACS
BD-Java: No
Playlist: 00002.MPLS
Size: 466 716 672 bytes
Length: 0:03:10.648
Total Bitrate: 19,58 Mbps
Video: MPEG-4 AVC Video / 18005 kbps / 1080p / 23,976 fps / 16:9 / High Profile 4.1
Audio: English / Dolby Digital Audio / 2.0 / 48 kHz / 192 kbps / DN -4dB
Audio: English / Dolby Digital Audio / 2.0 / 48 kHz / 192 kbps / DN -4dB
Audio: English / Dolby Digital Audio / 2.0 / 48 kHz / 192 kbps / DN -4dB
********************
PLAYLIST: 00007.MPLS
********************
Код:
Total   Video
Title                                                           Codec   Length  Movie Size      Disc Size       Bitrate Bitrate Main Audio Track                          Secondary Audio Track
-----                                                           ------  ------- --------------  --------------  ------- ------- ------------------                        ---------------------
00007.MPLS                                                      AVC     0:02:54 426 848 256     38 330 777 742  19,57   17,99   DD AC3 2.0 192Kbps
Код:
DISC INFO:
Disc Title:     Rush.Beyond the Lighted Stage.2010.BD1080p
Disc Size:      38 330 777 742 bytes
Protection:     AACS
BD-Java:        No
BDInfo:         0.5.8
PLAYLIST REPORT:
Name:                   00007.MPLS
Length:                 0:02:54.507 (h:m:s.ms)
Size:                   426 848 256 bytes
Total Bitrate:          19,57 Mbps
VIDEO:
Codec                   Bitrate             Description
-----                   -------             -----------
MPEG-4 AVC Video        17994 kbps          1080p / 23,976 fps / 16:9 / High Profile 4.1
AUDIO:
Codec                           Language        Bitrate         Description
-----                           --------        -------         -----------
Dolby Digital Audio             English         192 kbps        2.0 / 48 kHz / 192 kbps / DN -4dB
Dolby Digital Audio             English         192 kbps        2.0 / 48 kHz / 192 kbps / DN -4dB
Dolby Digital Audio             English         192 kbps        2.0 / 48 kHz / 192 kbps / DN -4dB
FILES:
Name            Time In         Length          Size            Total Bitrate
----            -------         ------          ----            -------------
00017.M2TS      0:00:00.000     0:02:54.507     426 848 256     19 568
CHAPTERS:
Number          Time In         Length          Avg Video Rate  Max 1-Sec Rate  Max 1-Sec Time  Max 5-Sec Rate  Max 5-Sec Time  Max 10Sec Rate  Max 10Sec Time  Avg Frame Size  Max Frame Size  Max Frame Time
------          -------         ------          --------------  --------------  --------------  --------------  --------------  --------------  --------------  --------------  --------------  --------------
1               0:00:00.000     0:02:54.507     17 994 kbps     21 595 kbps     00:01:54.864    20 863 kbps     00:01:54.906    20 232 kbps     00:01:54.864    93 811 bytes    311 846 bytes   00:01:07.442
STREAM DIAGNOSTICS:
File            PID             Type            Codec           Language                Seconds                 Bitrate                 Bytes           Packets
----            ---             ----            -----           --------                --------------          --------------          -------------   -----
00017.M2TS      4113 (0x1011)   0x1B            AVC                                     174,383                 18 007                  392 505 582     2 135 633
00017.M2TS      4352 (0x1100)   0x81            AC3             eng (English)           174,383                 192                     4 181 760       27 225
00017.M2TS      4353 (0x1101)   0x81            AC3             eng (English)           174,383                 192                     4 181 760       27 225
00017.M2TS      4354 (0x1102)   0x81            AC3             eng (English)           174,383                 192                     4 181 760       27 225
QUICK SUMMARY:
Disc Title: Rush.Beyond the Lighted Stage.2010.BD1080p
Disc Size: 38 330 777 742 bytes
Protection: AACS
BD-Java: No
Playlist: 00007.MPLS
Size: 426 848 256 bytes
Length: 0:02:54.507
Total Bitrate: 19,57 Mbps
Video: MPEG-4 AVC Video / 17994 kbps / 1080p / 23,976 fps / 16:9 / High Profile 4.1
Audio: English / Dolby Digital Audio / 2.0 / 48 kHz / 192 kbps / DN -4dB
Audio: English / Dolby Digital Audio / 2.0 / 48 kHz / 192 kbps / DN -4dB
Audio: English / Dolby Digital Audio / 2.0 / 48 kHz / 192 kbps / DN -4dB
********************
PLAYLIST: 00004.MPLS
********************
Код:
Total   Video
Title                                                           Codec   Length  Movie Size      Disc Size       Bitrate Bitrate Main Audio Track                          Secondary Audio Track
-----                                                           ------  ------- --------------  --------------  ------- ------- ------------------                        ---------------------
00004.MPLS                                                      AVC     0:02:31 370 335 744     38 330 777 742  19,56   17,98   DD AC3 2.0 192Kbps
Код:
DISC INFO:
Disc Title:     Rush.Beyond the Lighted Stage.2010.BD1080p
Disc Size:      38 330 777 742 bytes
Protection:     AACS
BD-Java:        No
BDInfo:         0.5.8
PLAYLIST REPORT:
Name:                   00004.MPLS
Length:                 0:02:31.484 (h:m:s.ms)
Size:                   370 335 744 bytes
Total Bitrate:          19,56 Mbps
VIDEO:
Codec                   Bitrate             Description
-----                   -------             -----------
MPEG-4 AVC Video        17984 kbps          1080p / 23,976 fps / 16:9 / High Profile 4.1
AUDIO:
Codec                           Language        Bitrate         Description
-----                           --------        -------         -----------
Dolby Digital Audio             English         192 kbps        2.0 / 48 kHz / 192 kbps / DN -4dB
Dolby Digital Audio             English         192 kbps        2.0 / 48 kHz / 192 kbps / DN -4dB
Dolby Digital Audio             English         192 kbps        2.0 / 48 kHz / 192 kbps / DN -4dB
FILES:
Name            Time In         Length          Size            Total Bitrate
----            -------         ------          ----            -------------
00014.M2TS      0:00:00.000     0:02:31.484     370 335 744     19 558
CHAPTERS:
Number          Time In         Length          Avg Video Rate  Max 1-Sec Rate  Max 1-Sec Time  Max 5-Sec Rate  Max 5-Sec Time  Max 10Sec Rate  Max 10Sec Time  Avg Frame Size  Max Frame Size  Max Frame Time
------          -------         ------          --------------  --------------  --------------  --------------  --------------  --------------  --------------  --------------  --------------  --------------
1               0:00:00.000     0:02:31.484     17 984 kbps     34 702 kbps     00:00:54.512    32 195 kbps     00:01:17.619    30 288 kbps     00:01:12.614    93 761 bytes    538 050 bytes   00:02:28.982
STREAM DIAGNOSTICS:
File            PID             Type            Codec           Language                Seconds                 Bitrate                 Bytes           Packets
----            ---             ----            -----           --------                --------------          --------------          -------------   -----
00014.M2TS      4113 (0x1011)   0x1B            AVC                                     151,360                 17 999                  340 539 809     1 852 867
00014.M2TS      4352 (0x1100)   0x81            AC3             eng (English)           151,360                 192                     3 628 800       23 625
00014.M2TS      4353 (0x1101)   0x81            AC3             eng (English)           151,360                 192                     3 628 800       23 625
00014.M2TS      4354 (0x1102)   0x81            AC3             eng (English)           151,360                 192                     3 628 800       23 625
QUICK SUMMARY:
Disc Title: Rush.Beyond the Lighted Stage.2010.BD1080p
Disc Size: 38 330 777 742 bytes
Protection: AACS
BD-Java: No
Playlist: 00004.MPLS
Size: 370 335 744 bytes
Length: 0:02:31.484
Total Bitrate: 19,56 Mbps
Video: MPEG-4 AVC Video / 17984 kbps / 1080p / 23,976 fps / 16:9 / High Profile 4.1
Audio: English / Dolby Digital Audio / 2.0 / 48 kHz / 192 kbps / DN -4dB
Audio: English / Dolby Digital Audio / 2.0 / 48 kHz / 192 kbps / DN -4dB
Audio: English / Dolby Digital Audio / 2.0 / 48 kHz / 192 kbps / DN -4dB
********************
PLAYLIST: 00003.MPLS
********************
Код:
Total   Video
Title                                                           Codec   Length  Movie Size      Disc Size       Bitrate Bitrate Main Audio Track                          Secondary Audio Track
-----                                                           ------  ------- --------------  --------------  ------- ------- ------------------                        ---------------------
00003.MPLS                                                      AVC     0:02:16 333 053 952     38 330 777 742  19,57   18,00   DD AC3 2.0 192Kbps
Код:
DISC INFO:
Disc Title:     Rush.Beyond the Lighted Stage.2010.BD1080p
Disc Size:      38 330 777 742 bytes
Protection:     AACS
BD-Java:        No
BDInfo:         0.5.8
PLAYLIST REPORT:
Name:                   00003.MPLS
Length:                 0:02:16.135 (h:m:s.ms)
Size:                   333 053 952 bytes
Total Bitrate:          19,57 Mbps
VIDEO:
Codec                   Bitrate             Description
-----                   -------             -----------
MPEG-4 AVC Video        17997 kbps          1080p / 23,976 fps / 16:9 / High Profile 4.1
AUDIO:
Codec                           Language        Bitrate         Description
-----                           --------        -------         -----------
Dolby Digital Audio             English         192 kbps        2.0 / 48 kHz / 192 kbps / DN -4dB
Dolby Digital Audio             English         192 kbps        2.0 / 48 kHz / 192 kbps / DN -4dB
Dolby Digital Audio             English         192 kbps        2.0 / 48 kHz / 192 kbps / DN -4dB
FILES:
Name            Time In         Length          Size            Total Bitrate
----            -------         ------          ----            -------------
00013.M2TS      0:00:00.000     0:02:16.135     333 053 952     19 572
CHAPTERS:
Number          Time In         Length          Avg Video Rate  Max 1-Sec Rate  Max 1-Sec Time  Max 5-Sec Rate  Max 5-Sec Time  Max 10Sec Rate  Max 10Sec Time  Avg Frame Size  Max Frame Size  Max Frame Time
------          -------         ------          --------------  --------------  --------------  --------------  --------------  --------------  --------------  --------------  --------------  --------------
1               0:00:00.000     0:02:16.135     17 997 kbps     32 755 kbps     00:01:01.311    24 155 kbps     00:00:57.432    23 174 kbps     00:00:52.510    93 827 bytes    369 947 bytes   00:01:37.972
STREAM DIAGNOSTICS:
File            PID             Type            Codec           Language                Seconds                 Bitrate                 Bytes           Packets
----            ---             ----            -----           --------                --------------          --------------          -------------   -----
00013.M2TS      4113 (0x1011)   0x1B            AVC                                     136,053                 18 008                  306 251 901     1 666 334
00013.M2TS      4352 (0x1100)   0x81            AC3             eng (English)           136,053                 192                     3 264 000       21 250
00013.M2TS      4353 (0x1101)   0x81            AC3             eng (English)           136,053                 192                     3 264 000       21 250
00013.M2TS      4354 (0x1102)   0x81            AC3             eng (English)           136,053                 192                     3 264 000       21 250
QUICK SUMMARY:
Disc Title: Rush.Beyond the Lighted Stage.2010.BD1080p
Disc Size: 38 330 777 742 bytes
Protection: AACS
BD-Java: No
Playlist: 00003.MPLS
Size: 333 053 952 bytes
Length: 0:02:16.135
Total Bitrate: 19,57 Mbps
Video: MPEG-4 AVC Video / 17997 kbps / 1080p / 23,976 fps / 16:9 / High Profile 4.1
Audio: English / Dolby Digital Audio / 2.0 / 48 kHz / 192 kbps / DN -4dB
Audio: English / Dolby Digital Audio / 2.0 / 48 kHz / 192 kbps / DN -4dB
Audio: English / Dolby Digital Audio / 2.0 / 48 kHz / 192 kbps / DN -4dB
********************
PLAYLIST: 00019.MPLS
********************
Код:
Total   Video
Title                                                           Codec   Length  Movie Size      Disc Size       Bitrate Bitrate Main Audio Track                          Secondary Audio Track
-----                                                           ------  ------- --------------  --------------  ------- ------- ------------------                        ---------------------
00019.MPLS                                                      AVC     0:21:10 4 103 755 776   38 330 777 742  25,83   23,99   DD AC3 2.0 192Kbps
Код:
DISC INFO:
Disc Title:     Rush.Beyond the Lighted Stage.2010.BD1080p
Disc Size:      38 330 777 742 bytes
Protection:     AACS
BD-Java:        No
BDInfo:         0.5.8
PLAYLIST REPORT:
Name:                   00019.MPLS
Length:                 0:21:10.902 (h:m:s.ms)
Size:                   4 103 755 776 bytes
Total Bitrate:          25,83 Mbps
VIDEO:
Codec                   Bitrate             Description
-----                   -------             -----------
MPEG-4 AVC Video        23990 kbps          1080i / 29,970 fps / 16:9 / High Profile 4.1
AUDIO:
Codec                           Language        Bitrate         Description
-----                           --------        -------         -----------
Dolby Digital Audio             English         192 kbps        2.0 / 48 kHz / 192 kbps / DN -4dB
Dolby Digital Audio             English         192 kbps        2.0 / 48 kHz / 192 kbps / DN -4dB
Dolby Digital Audio             English         192 kbps        2.0 / 48 kHz / 192 kbps / DN -4dB
FILES:
Name            Time In         Length          Size            Total Bitrate
----            -------         ------          ----            -------------
00027.M2TS      0:00:00.000     0:05:24.791     1 048 885 248   25 835
00026.M2TS      0:05:24.791     0:04:58.631     964 165 632     25 829
00025.M2TS      0:10:23.422     0:06:09.402     1 192 857 600   25 833
00028.M2TS      0:16:32.825     0:04:38.077     897 847 296     25 830
CHAPTERS:
Number          Time In         Length          Avg Video Rate  Max 1-Sec Rate  Max 1-Sec Time  Max 5-Sec Rate  Max 5-Sec Time  Max 10Sec Rate  Max 10Sec Time  Avg Frame Size  Max Frame Size  Max Frame Time
------          -------         ------          --------------  --------------  --------------  --------------  --------------  --------------  --------------  --------------  --------------  --------------
1               0:00:00.000     0:05:24.791     23 993 kbps     32 567 kbps     00:02:55.408    27 088 kbps     00:02:51.404    26 214 kbps     00:02:10.130    100 062 bytes   323 750 bytes   00:00:06.272
2               0:05:24.791     0:04:58.631     23 987 kbps     30 389 kbps     00:05:32.932    27 566 kbps     00:07:52.638    26 466 kbps     00:05:55.021    100 048 bytes   316 820 bytes   00:10:22.221
3               0:10:23.422     0:06:09.402     23 992 kbps     42 854 kbps     00:12:33.319    33 103 kbps     00:12:31.217    29 430 kbps     00:12:31.150    100 065 bytes   398 935 bytes   00:14:36.342
4               0:16:32.825     0:04:38.077     23 989 kbps     36 724 kbps     00:16:53.078    29 189 kbps     00:18:12.124    27 388 kbps     00:18:08.320    100 064 bytes   358 432 bytes   00:18:38.550
STREAM DIAGNOSTICS:
File            PID             Type            Codec           Language                Seconds                 Bitrate                 Bytes           Packets
----            ---             ----            -----           --------                --------------          --------------          -------------   -----
00027.M2TS      4113 (0x1011)   0x1B            AVC                                     324,691                 24 001                  974 099 858     5 299 788
00027.M2TS      4352 (0x1100)   0x81            AC3             eng (English)           324,691                 192                     7 795 200       50 750
00027.M2TS      4353 (0x1101)   0x81            AC3             eng (English)           324,691                 192                     7 795 200       50 750
00027.M2TS      4354 (0x1102)   0x81            AC3             eng (English)           324,691                 192                     7 795 200       50 750
00026.M2TS      4113 (0x1011)   0x1B            AVC                                     298,532                 23 996                  895 428 388     4 871 670
00026.M2TS      4352 (0x1100)   0x81            AC3             eng (English)           298,532                 192                     7 167 744       46 665
00026.M2TS      4353 (0x1101)   0x81            AC3             eng (English)           298,532                 192                     7 167 744       46 665
00026.M2TS      4354 (0x1102)   0x81            AC3             eng (English)           298,532                 192                     7 167 744       46 665
00025.M2TS      4113 (0x1011)   0x1B            AVC                                     369,336                 23 996                  1 107 823 808   6 027 248
00025.M2TS      4352 (0x1100)   0x81            AC3             eng (English)           369,336                 192                     8 865 792       57 720
00025.M2TS      4353 (0x1101)   0x81            AC3             eng (English)           369,336                 192                     8 865 792       57 720
00025.M2TS      4354 (0x1102)   0x81            AC3             eng (English)           369,336                 192                     8 865 792       57 720
00028.M2TS      4113 (0x1011)   0x1B            AVC                                     277,978                 23 997                  833 839 508     4 536 589
00028.M2TS      4352 (0x1100)   0x81            AC3             eng (English)           277,978                 192                     6 673 920       43 450
00028.M2TS      4353 (0x1101)   0x81            AC3             eng (English)           277,978                 192                     6 673 920       43 450
00028.M2TS      4354 (0x1102)   0x81            AC3             eng (English)           277,978                 192                     6 673 920       43 450
QUICK SUMMARY:
Disc Title: Rush.Beyond the Lighted Stage.2010.BD1080p
Disc Size: 38 330 777 742 bytes
Protection: AACS
BD-Java: No
Playlist: 00019.MPLS
Size: 4 103 755 776 bytes
Length: 0:21:10.902
Total Bitrate: 25,83 Mbps
Video: MPEG-4 AVC Video / 23990 kbps / 1080i / 29,970 fps / 16:9 / High Profile 4.1
Audio: English / Dolby Digital Audio / 2.0 / 48 kHz / 192 kbps / DN -4dB
Audio: English / Dolby Digital Audio / 2.0 / 48 kHz / 192 kbps / DN -4dB
Audio: English / Dolby Digital Audio / 2.0 / 48 kHz / 192 kbps / DN -4dB
********************
PLAYLIST: 00020.MPLS
********************
Код:
Total   Video
Title                                                           Codec   Length  Movie Size      Disc Size       Bitrate Bitrate Main Audio Track                          Secondary Audio Track
-----                                                           ------  ------- --------------  --------------  ------- ------- ------------------                        ---------------------
00020.MPLS                                                      AVC     0:06:09 1 192 857 600   38 330 777 742  25,83   23,99   DD AC3 2.0 192Kbps
Код:
DISC INFO:
Disc Title:     Rush.Beyond the Lighted Stage.2010.BD1080p
Disc Size:      38 330 777 742 bytes
Protection:     AACS
BD-Java:        No
BDInfo:         0.5.8
PLAYLIST REPORT:
Name:                   00020.MPLS
Length:                 0:06:09.402 (h:m:s.ms)
Size:                   1 192 857 600 bytes
Total Bitrate:          25,83 Mbps
VIDEO:
Codec                   Bitrate             Description
-----                   -------             -----------
MPEG-4 AVC Video        23992 kbps          1080i / 29,970 fps / 16:9 / High Profile 4.1
AUDIO:
Codec                           Language        Bitrate         Description
-----                           --------        -------         -----------
Dolby Digital Audio             English         192 kbps        2.0 / 48 kHz / 192 kbps / DN -4dB
Dolby Digital Audio             English         192 kbps        2.0 / 48 kHz / 192 kbps / DN -4dB
Dolby Digital Audio             English         192 kbps        2.0 / 48 kHz / 192 kbps / DN -4dB
FILES:
Name            Time In         Length          Size            Total Bitrate
----            -------         ------          ----            -------------
00025.M2TS      0:00:00.000     0:06:09.402     1 192 857 600   25 833
CHAPTERS:
Number          Time In         Length          Avg Video Rate  Max 1-Sec Rate  Max 1-Sec Time  Max 5-Sec Rate  Max 5-Sec Time  Max 10Sec Rate  Max 10Sec Time  Avg Frame Size  Max Frame Size  Max Frame Time
------          -------         ------          --------------  --------------  --------------  --------------  --------------  --------------  --------------  --------------  --------------  --------------
1               0:00:00.000     0:06:09.402     23 992 kbps     42 854 kbps     00:02:09.896    33 103 kbps     00:02:07.794    29 430 kbps     00:02:07.727    100 065 bytes   398 935 bytes   00:04:12.919
STREAM DIAGNOSTICS:
File            PID             Type            Codec           Language                Seconds                 Bitrate                 Bytes           Packets
----            ---             ----            -----           --------                --------------          --------------          -------------   -----
00025.M2TS      4113 (0x1011)   0x1B            AVC                                     369,336                 23 996                  1 107 823 808   6 027 248
00025.M2TS      4352 (0x1100)   0x81            AC3             eng (English)           369,336                 192                     8 865 792       57 720
00025.M2TS      4353 (0x1101)   0x81            AC3             eng (English)           369,336                 192                     8 865 792       57 720
00025.M2TS      4354 (0x1102)   0x81            AC3             eng (English)           369,336                 192                     8 865 792       57 720
QUICK SUMMARY:
Disc Title: Rush.Beyond the Lighted Stage.2010.BD1080p
Disc Size: 38 330 777 742 bytes
Protection: AACS
BD-Java: No
Playlist: 00020.MPLS
Size: 1 192 857 600 bytes
Length: 0:06:09.402
Total Bitrate: 25,83 Mbps
Video: MPEG-4 AVC Video / 23992 kbps / 1080i / 29,970 fps / 16:9 / High Profile 4.1
Audio: English / Dolby Digital Audio / 2.0 / 48 kHz / 192 kbps / DN -4dB
Audio: English / Dolby Digital Audio / 2.0 / 48 kHz / 192 kbps / DN -4dB
Audio: English / Dolby Digital Audio / 2.0 / 48 kHz / 192 kbps / DN -4dB
********************
PLAYLIST: 00022.MPLS
********************
Код:
Total   Video
Title                                                           Codec   Length  Movie Size      Disc Size       Bitrate Bitrate Main Audio Track                          Secondary Audio Track
-----                                                           ------  ------- --------------  --------------  ------- ------- ------------------                        ---------------------
00022.MPLS                                                      AVC     0:05:24 1 048 885 248   38 330 777 742  25,84   23,99   DD AC3 2.0 192Kbps
Код:
DISC INFO:
Disc Title:     Rush.Beyond the Lighted Stage.2010.BD1080p
Disc Size:      38 330 777 742 bytes
Protection:     AACS
BD-Java:        No
BDInfo:         0.5.8
PLAYLIST REPORT:
Name:                   00022.MPLS
Length:                 0:05:24.791 (h:m:s.ms)
Size:                   1 048 885 248 bytes
Total Bitrate:          25,84 Mbps
VIDEO:
Codec                   Bitrate             Description
-----                   -------             -----------
MPEG-4 AVC Video        23993 kbps          1080i / 29,970 fps / 16:9 / High Profile 4.1
AUDIO:
Codec                           Language        Bitrate         Description
-----                           --------        -------         -----------
Dolby Digital Audio             English         192 kbps        2.0 / 48 kHz / 192 kbps / DN -4dB
Dolby Digital Audio             English         192 kbps        2.0 / 48 kHz / 192 kbps / DN -4dB
Dolby Digital Audio             English         192 kbps        2.0 / 48 kHz / 192 kbps / DN -4dB
FILES:
Name            Time In         Length          Size            Total Bitrate
----            -------         ------          ----            -------------
00027.M2TS      0:00:00.000     0:05:24.791     1 048 885 248   25 835
CHAPTERS:
Number          Time In         Length          Avg Video Rate  Max 1-Sec Rate  Max 1-Sec Time  Max 5-Sec Rate  Max 5-Sec Time  Max 10Sec Rate  Max 10Sec Time  Avg Frame Size  Max Frame Size  Max Frame Time
------          -------         ------          --------------  --------------  --------------  --------------  --------------  --------------  --------------  --------------  --------------  --------------
1               0:00:00.000     0:05:24.791     23 993 kbps     32 567 kbps     00:02:55.408    27 088 kbps     00:02:51.404    26 214 kbps     00:02:10.130    100 072 bytes   323 750 bytes   00:00:06.272
STREAM DIAGNOSTICS:
File            PID             Type            Codec           Language                Seconds                 Bitrate                 Bytes           Packets
----            ---             ----            -----           --------                --------------          --------------          -------------   -----
00027.M2TS      4113 (0x1011)   0x1B            AVC                                     324,691                 24 001                  974 099 858     5 299 788
00027.M2TS      4352 (0x1100)   0x81            AC3             eng (English)           324,691                 192                     7 795 200       50 750
00027.M2TS      4353 (0x1101)   0x81            AC3             eng (English)           324,691                 192                     7 795 200       50 750
00027.M2TS      4354 (0x1102)   0x81            AC3             eng (English)           324,691                 192                     7 795 200       50 750
QUICK SUMMARY:
Disc Title: Rush.Beyond the Lighted Stage.2010.BD1080p
Disc Size: 38 330 777 742 bytes
Protection: AACS
BD-Java: No
Playlist: 00022.MPLS
Size: 1 048 885 248 bytes
Length: 0:05:24.791
Total Bitrate: 25,84 Mbps
Video: MPEG-4 AVC Video / 23993 kbps / 1080i / 29,970 fps / 16:9 / High Profile 4.1
Audio: English / Dolby Digital Audio / 2.0 / 48 kHz / 192 kbps / DN -4dB
Audio: English / Dolby Digital Audio / 2.0 / 48 kHz / 192 kbps / DN -4dB
Audio: English / Dolby Digital Audio / 2.0 / 48 kHz / 192 kbps / DN -4dB
********************
PLAYLIST: 00021.MPLS
********************
Код:
Total   Video
Title                                                           Codec   Length  Movie Size      Disc Size       Bitrate Bitrate Main Audio Track                          Secondary Audio Track
-----                                                           ------  ------- --------------  --------------  ------- ------- ------------------                        ---------------------
00021.MPLS                                                      AVC     0:04:58 964 165 632     38 330 777 742  25,83   23,99   DD AC3 2.0 192Kbps
Код:
DISC INFO:
Disc Title:     Rush.Beyond the Lighted Stage.2010.BD1080p
Disc Size:      38 330 777 742 bytes
Protection:     AACS
BD-Java:        No
BDInfo:         0.5.8
PLAYLIST REPORT:
Name:                   00021.MPLS
Length:                 0:04:58.631 (h:m:s.ms)
Size:                   964 165 632 bytes
Total Bitrate:          25,83 Mbps
VIDEO:
Codec                   Bitrate             Description
-----                   -------             -----------
MPEG-4 AVC Video        23988 kbps          1080i / 29,970 fps / 16:9 / High Profile 4.1
AUDIO:
Codec                           Language        Bitrate         Description
-----                           --------        -------         -----------
Dolby Digital Audio             English         192 kbps        2.0 / 48 kHz / 192 kbps / DN -4dB
Dolby Digital Audio             English         192 kbps        2.0 / 48 kHz / 192 kbps / DN -4dB
Dolby Digital Audio             English         192 kbps        2.0 / 48 kHz / 192 kbps / DN -4dB
FILES:
Name            Time In         Length          Size            Total Bitrate
----            -------         ------          ----            -------------
00026.M2TS      0:00:00.000     0:04:58.631     964 165 632     25 829
CHAPTERS:
Number          Time In         Length          Avg Video Rate  Max 1-Sec Rate  Max 1-Sec Time  Max 5-Sec Rate  Max 5-Sec Time  Max 10Sec Rate  Max 10Sec Time  Avg Frame Size  Max Frame Size  Max Frame Time
------          -------         ------          --------------  --------------  --------------  --------------  --------------  --------------  --------------  --------------  --------------  --------------
1               0:00:00.000     0:04:58.631     23 987 kbps     30 389 kbps     00:00:08.141    27 566 kbps     00:02:27.847    26 466 kbps     00:00:30.230    100 048 bytes   316 820 bytes   00:04:57.430
STREAM DIAGNOSTICS:
File            PID             Type            Codec           Language                Seconds                 Bitrate                 Bytes           Packets
----            ---             ----            -----           --------                --------------          --------------          -------------   -----
00026.M2TS      4113 (0x1011)   0x1B            AVC                                     298,532                 23 996                  895 428 388     4 871 670
00026.M2TS      4352 (0x1100)   0x81            AC3             eng (English)           298,532                 192                     7 167 744       46 665
00026.M2TS      4353 (0x1101)   0x81            AC3             eng (English)           298,532                 192                     7 167 744       46 665
00026.M2TS      4354 (0x1102)   0x81            AC3             eng (English)           298,532                 192                     7 167 744       46 665
QUICK SUMMARY:
Disc Title: Rush.Beyond the Lighted Stage.2010.BD1080p
Disc Size: 38 330 777 742 bytes
Protection: AACS
BD-Java: No
Playlist: 00021.MPLS
Size: 964 165 632 bytes
Length: 0:04:58.631
Total Bitrate: 25,83 Mbps
Video: MPEG-4 AVC Video / 23988 kbps / 1080i / 29,970 fps / 16:9 / High Profile 4.1
Audio: English / Dolby Digital Audio / 2.0 / 48 kHz / 192 kbps / DN -4dB
Audio: English / Dolby Digital Audio / 2.0 / 48 kHz / 192 kbps / DN -4dB
Audio: English / Dolby Digital Audio / 2.0 / 48 kHz / 192 kbps / DN -4dB
********************
PLAYLIST: 00023.MPLS
********************
Код:
Total   Video
Title                                                           Codec   Length  Movie Size      Disc Size       Bitrate Bitrate Main Audio Track                          Secondary Audio Track
-----                                                           ------  ------- --------------  --------------  ------- ------- ------------------                        ---------------------
00023.MPLS                                                      AVC     0:04:38 897 847 296     38 330 777 742  25,83   23,99   DD AC3 2.0 192Kbps
Код:
DISC INFO:
Disc Title:     Rush.Beyond the Lighted Stage.2010.BD1080p
Disc Size:      38 330 777 742 bytes
Protection:     AACS
BD-Java:        No
BDInfo:         0.5.8
PLAYLIST REPORT:
Name:                   00023.MPLS
Length:                 0:04:38.077 (h:m:s.ms)
Size:                   897 847 296 bytes
Total Bitrate:          25,83 Mbps
VIDEO:
Codec                   Bitrate             Description
-----                   -------             -----------
MPEG-4 AVC Video        23989 kbps          1080i / 29,970 fps / 16:9 / High Profile 4.1
AUDIO:
Codec                           Language        Bitrate         Description
-----                           --------        -------         -----------
Dolby Digital Audio             English         192 kbps        2.0 / 48 kHz / 192 kbps / DN -4dB
Dolby Digital Audio             English         192 kbps        2.0 / 48 kHz / 192 kbps / DN -4dB
Dolby Digital Audio             English         192 kbps        2.0 / 48 kHz / 192 kbps / DN -4dB
FILES:
Name            Time In         Length          Size            Total Bitrate
----            -------         ------          ----            -------------
00028.M2TS      0:00:00.000     0:04:38.077     897 847 296     25 830
CHAPTERS:
Number          Time In         Length          Avg Video Rate  Max 1-Sec Rate  Max 1-Sec Time  Max 5-Sec Rate  Max 5-Sec Time  Max 10Sec Rate  Max 10Sec Time  Avg Frame Size  Max Frame Size  Max Frame Time
------          -------         ------          --------------  --------------  --------------  --------------  --------------  --------------  --------------  --------------  --------------  --------------
1               0:00:00.000     0:04:38.077     23 989 kbps     36 724 kbps     00:00:20.253    29 189 kbps     00:01:39.299    27 388 kbps     00:01:35.495    100 053 bytes   358 432 bytes   00:02:05.725
STREAM DIAGNOSTICS:
File            PID             Type            Codec           Language                Seconds                 Bitrate                 Bytes           Packets
----            ---             ----            -----           --------                --------------          --------------          -------------   -----
00028.M2TS      4113 (0x1011)   0x1B            AVC                                     277,978                 23 997                  833 839 508     4 536 589
00028.M2TS      4352 (0x1100)   0x81            AC3             eng (English)           277,978                 192                     6 673 920       43 450
00028.M2TS      4353 (0x1101)   0x81            AC3             eng (English)           277,978                 192                     6 673 920       43 450
00028.M2TS      4354 (0x1102)   0x81            AC3             eng (English)           277,978                 192                     6 673 920       43 450
QUICK SUMMARY:
Disc Title: Rush.Beyond the Lighted Stage.2010.BD1080p
Disc Size: 38 330 777 742 bytes
Protection: AACS
BD-Java: No
Playlist: 00023.MPLS
Size: 897 847 296 bytes
Length: 0:04:38.077
Total Bitrate: 25,83 Mbps
Video: MPEG-4 AVC Video / 23989 kbps / 1080i / 29,970 fps / 16:9 / High Profile 4.1
Audio: English / Dolby Digital Audio / 2.0 / 48 kHz / 192 kbps / DN -4dB
Audio: English / Dolby Digital Audio / 2.0 / 48 kHz / 192 kbps / DN -4dB
Audio: English / Dolby Digital Audio / 2.0 / 48 kHz / 192 kbps / DN -4dB

Скриншоты



За предоставленный материал спасибо chuhonka и HDGeek!!!-
Other forum [Profile] [PM]
Display posts from previous:    
Reply to topic

The time now is: Today 22:52

All times are GMT + 3 Hours



You cannot post new topics in this forum
You cannot reply to topics in this forum
You cannot edit your posts in this forum
You cannot delete your posts in this forum
You cannot vote in polls in this forum
You cannot attach files in this forum
You cannot download files in this forum