Сегодня идет свободное скачивание без начисления Download

Чисто английское убийство (1974) [H.264] DVDRip

Ответить на тему
 
Автор
Сообщение

Omen ®

Стаж: 6 лет

Сообщений: 184329

Торрент-статистика

Пост 10-Янв-2013 23:02

[Цитировать]

-Чисто английское убийство (1974) DVDRip- Русское название: Чисто английское убийство
Год выпуска: 1974
Жанр: Детектив
Описание фильма:
В замке старого и больного лорда Уорбека гостит доктор Ботвинк. На Рождество приезжают избранные родственники и близкие друзья. В полночь праздник прерывается неожиданной смертью сына хозяина — Роберта.
Доктор Ботвинк берется за расследование. Все персонажи связаны между собой сложными и не самыми приятными отношениями, но доктору удается распутать клубок преступлений.
Режиссер: Самсон Самсонов
Актеры: Алексей Баталов, Борис Иванов, Файме Юрно, Эйнари Коппель, Георгий Тараторкин, Ирина Муравьёва
Продолжительность: 02:38:57

Видеокодек: MPEG-4 AVC/H.264
Битрейт видео: ~2115 Кбит/сек
Размер кадра: 720х512
Качество видео: DVDRip
Аудиокодек: AC3, 1 ch
Битрейт аудио: 384 Кбит/сек
Скриншоты:                

MediaInfo

Общее
Уникальный идентификатор : 218821770306032610816955396879129714655 (0xA49F8A3CE411FA26935D9A50480B1FDF)
Полное имя : G:\_Reliz\Чисто английское убийство.DVDRip-AVC.[/*spam*/]\2 серия.DVDRip-AVC.h264.almikl.mkv
Формат : Matroska
Версия формата : Version 2
Размер файла : 1,38 Гбайт
Продолжительность : 1 ч. 19 м.
Общий поток : 2500 Кбит/сек
Дата кодирования : UTC 2012-11-23 12:03:43
Программа кодирования : mkvmerge v5.6.0 ('Kenya Kane') built on May 27 2012 16:44:04
Библиотека кодирования : libebml v1.2.3 + libmatroska v1.3.0
Видео
Идентификатор : 1
Формат : AVC
Формат/Информация : Advanced Video Codec
Профиль формата : [url=mailto:[email protected]][email protected][/url]
Параметр CABAC формата : Да
Параметр ReFrames формата : 6 кадров
Идентификатор кодека : V_MPEG4/ISO/AVC
Продолжительность : 1 ч. 19 м.
Битрейт : 2115 Кбит/сек
Ширина : 720 пикселей
Высота : 512 пикселей
Соотношение сторон : 1,406
Режим частоты кадров : Постоянный
Частота кадров : 25,000 кадров/сек
Цветовое пространство : YUV
Субдискретизация насыщенности : 4:2:0
Битовая глубина : 8 бит
Тип развёртки : Прогрессивная
Бит/(Пиксели*Кадры) : 0.229
Размер потока : 1,14 Гбайт (83%)
Библиотека кодирования : x264 core 125 r2200 999b753
Настройки программы : cabac=1 / ref=6 / deblock=1:-1:-1 / analyse=0x3:0x113 / me=umh / subme=10 / psy=1 / psy_rd=1.00:0.15 / mixed_ref=1 / me_range=16 / chroma_me=1 / trellis=2 / 8x8dct=1 / cqm=0 / deadzone=21,11 / fast_pskip=1 / chroma_qp_offset=-3 / threads=3 / lookahead_threads=1 / sliced_threads=0 / nr=0 / decimate=1 / interlaced=0 / bluray_compat=0 / constrained_intra=0 / bframes=6 / b_pyramid=2 / b_adapt=2 / b_bias=0 / direct=1 / weightb=1 / open_gop=0 / weightp=2 / keyint=250 / keyint_min=25 / scenecut=40 / intra_refresh=0 / rc_lookahead=40 / rc=2pass / mbtree=1 / bitrate=2115 / ratetol=1.0 / qcomp=0.60 / qpmin=0 / qpmax=69 / qpstep=4 / cplxblur=20.0 / qblur=0.5 / ip_ratio=1.40 / aq=1:1.00
Default : Да
Forced : Нет
Аудио
Идентификатор : 2
Формат : AC-3
Формат/Информация : Audio Coding 3
Расширение режима : CM (complete main)
Параметр Endianness формата : Big
Идентификатор кодека : A_AC3
Продолжительность : 1 ч. 19 м.
Вид битрейта : Постоянный
Битрейт : 384 Кбит/сек
Каналы : 1 канал
Расположение каналов : Front: C
Частота : 48,0 КГц
Битовая глубина : 16 бит
Метод сжатия : С потерями
Размер потока : 218 Мбайт (15%)
Default : Да
Forced : Нет
Вне форума [Профиль] [ЛС]
Показать сообщения:    
Ответить на тему

Текущее время: Сегодня 15:16

Часовой пояс: GMT + 3



Вы не можете начинать темы
Вы не можете отвечать на сообщения
Вы не можете редактировать свои сообщения
Вы не можете удалять свои сообщения
Вы не можете голосовать в опросах
Вы не можете прикреплять файлы к сообщениям
Вы не можете скачивать файлы