Today is a free download without charge Download

Discovery: Вселенские ураганы / Discovery: Alien Storms (2010) DVDRip

Reply to topic
 
Author
Message

Omen ®

Longevity: 7 years 10 months

Posts: 181087

Торрент-статистика

Post 10-Jan-2013 21:11

[Quote]


Информация о фильме
Название: Discovery: Вселенские ураганы
Оригинальное название: Discovery: Alien Storms
Год выхода: 2010
Жанр: Документальный
Режиссер: Люк Эллис, Мэт Хайки
О фильме:
Экстремальная погода является нормой для Солнечной системы. Экстремальные условия на Земле - ничто по сравнению с пылевыми бурями и жестокими ураганами Вселенной.
Страна: США
Студия: Discovery Channel
Продолжительность: 00:43:33
Перевод: Профессиональный (одноголосный)
Файл
Кодек: H264
Качество: DVDRip
Видео: 720 x 400 (1.800) at 29.970 fps/AVI at 4160 Кбит/сек
Звук: MPEG Audio at 320 Кбит/сек/2 канала(ов), 44,1 КГц
MediaInfo

Скрытый текст

Видео
Идентификатор : 0
Формат : AVC
Формат/Информация : Advanced Video Codec
Профиль формата : [email protected]
Параметр CABAC формата : Нет
Параметр ReFrames формата : 1 кадр
Идентификатор кодека : H264
Продолжительность : 43 м.
Вид битрейта : Переменный
Битрейт : 3824 Кбит/сек
Максимальный битрейт : 4587 Кбит/сек
Ширина : 720 пикс.
Высота : 400 пикс.
Соотношение сторон : 16:9
Частота кадров : 29,970 кадр/сек
Частота кадров в оригинале : 24,000 кадр/сек
Цветовое пространство : YUV
Подвыборка цветности : 4:2:0
Битовая глубина : 8 бит
Тип развёртки : Прогрессивная
Бит/(Пиксели*Кадры) : 0.443
Размер потока : 1,16 Гбайт (92%)
Аудио
Идентификатор : 1
Формат : MPEG Audio
Версия формата : Version 1
Профиль формата : Layer 3
Режим : Joint stereo
Расширение режима : MS Stereo
Идентификатор кодека : 55
Идентификатор кодека/Подсказка : MP3
Продолжительность : 43 м.
Вид битрейта : Постоянный
Битрейт : 320 Кбит/сек
Канал(ы) : 2 канала(ов)
Частота : 44,1 КГц
Метод сжатия : С потерями
Размер потока : 99,7 Мбайт (8%)
Выравнивание : Соединение по промежуткам
Продолжительность промежутка : 26 мс. (0,78 видеокадр)
Время предзагрузки промежутка : 26 ms
Библиотека кодирования : LAME3.97
Other forum [Profile] [PM]
Display posts from previous:    
Reply to topic

The time now is: Today 16:37

All times are GMT + 3 Hours



You cannot post new topics in this forum
You cannot reply to topics in this forum
You cannot edit your posts in this forum
You cannot delete your posts in this forum
You cannot vote in polls in this forum
You cannot attach files in this forum
You cannot download files in this forum